<?xml version="1.0" standalone="no"?>
<!DOCTYPE svg PUBLIC "-//W3C//DTD SVG 1.1//EN" "http://www.w3.org/Graphics/SVG/1.1/DTD/svg11.dtd" >
<svg xmlns="http://www.w3.org/2000/svg" xmlns:xlink="http://www.w3.org/1999/xlink" version="1.1">
<metadata></metadata>
<defs>
<font id="crimson_textbold" horiz-adv-x="1102" >
<font-face units-per-em="2048" ascent="1484" descent="-564" />
<missing-glyph horiz-adv-x="477" />
<glyph horiz-adv-x="2048" />
<glyph horiz-adv-x="2048" />
<glyph unicode="&#xd;" horiz-adv-x="2048" />
<glyph unicode=" "  horiz-adv-x="477" />
<glyph unicode="&#x09;" horiz-adv-x="477" />
<glyph unicode="&#xa0;" horiz-adv-x="477" />
<glyph unicode="!" horiz-adv-x="604" d="M132 148q0 67 49.5 115t118.5 48q70 0 119 -51t49 -119q0 -67 -48.5 -116.5t-117.5 -49.5q-70 0 -120 50.5t-50 122.5zM161 1288q0 68 42.5 109t105.5 41q56 0 97.5 -41.5t41.5 -110.5q0 -45 -35.5 -339t-58.5 -452q-4 -12 -7.5 -20t-8.5 -16t-12 -13.5t-17 -8.5 q-9 0 -25.5 11t-25.5 27q-14 80 -36 248.5t-41.5 340t-19.5 224.5z" />
<glyph unicode="&#x22;" horiz-adv-x="741" d="M81 1382q0 28 10 60t27 60.5t44 47t58 18.5q15 0 27 -3.5t22 -11t20 -21.5q0 -57 -13 -233.5t-25 -281.5q-5 -8 -13.5 -18t-19.5 -19t-21 -15q-15 0 -22 18q-50 169 -72 258.5t-22 140.5zM439 1382q0 28 10 60t27.5 60.5t44.5 47t57 18.5q24 0 39 -8t30 -28 q0 -57 -13 -233.5t-25 -281.5q-7 -12 -23 -27.5t-30 -24.5q-16 0 -23 18q-49 169 -71.5 258.5t-22.5 140.5z" />
<glyph unicode="#" horiz-adv-x="1064" d="M109 368.5q3 31.5 18 70t28 43.5h731q21 0 8 -65q-14 -65 -36 -83q-2 -2 -4 -2h-737q-11 5 -8 36.5zM175 824q15 69 37 84q2 1 4 1h730q21 0 9 -64q-12 -65 -34 -83q-2 -2 -4 -3h-737q-19 0 -5 65zM220 60l177 1100q5 16 19.5 22.5t45.5 6.5q19 0 29 -6l-179 -1102 q-1 -5 -10.5 -12t-25 -12t-31.5 -5q-6 0 -11 0.5t-7.5 2t-4 3t-1.5 2.5h-1zM581 60l177 1100q5 16 19.5 22.5t45.5 6.5q19 0 29 -6l-177 -1102q-1 -4 -7.5 -9t-15.5 -9.5t-22 -7.5t-24 -3q-10 0 -16.5 2t-7.5 4z" />
<glyph unicode="$" horiz-adv-x="1160" d="M121 399q4 6 17.5 13t26.5 11.5t19 4.5q24 0 27 -18q6 -36 24.5 -80.5t50.5 -91t71.5 -84.5t92.5 -62.5t108 -24.5q27 0 53 5t55 19.5t50.5 37t35.5 61t14 88.5q0 30 -9.5 60.5t-24 55t-38.5 51t-45 45.5t-52 42t-51.5 36.5t-51 33.5t-44.5 30q-11 7 -32 21 q-32 22 -48.5 33t-45.5 32t-44.5 34.5t-38.5 36t-35.5 41t-28 44.5t-23 51.5t-12.5 57t-5 65.5q0 81 40 154t105 123.5t147 80.5t165 30q35 0 71.5 -3.5t73.5 -10.5t67 -13.5t74 -16.5t74 -17q9 -86 23 -356q-9 -11 -23 -11h-6.5t-12.5 -0.5t-14 0.5t-14.5 2t-11.5 4t-6 7 q-4 32 -15.5 67t-29 71.5t-42.5 70t-54 59.5t-66 41.5t-77 15.5q-34 0 -64.5 -9t-58.5 -29.5t-44.5 -58t-16.5 -89.5q0 -154 311 -351q20 -13 55 -33.5t56 -33.5t52 -36t50 -43t41 -50.5t34 -63.5t20 -78t8 -97q0 -85 -40 -160.5t-105.5 -126.5t-150 -80t-172.5 -29 q-162 0 -408 56q-15 63 -31 184.5t-20 180.5zM390 -69l255 1565h11t14.5 -0.5t16.5 -1.5t16.5 -2t15 -3t10 -4.5t3.5 -6.5l-255 -1568q-25 0 -56 5t-31 16z" />
<glyph unicode="%" horiz-adv-x="1536" d="M87 1091q0 93 46 172t126.5 126t177.5 47q153 0 252 -95t99 -239q0 -93 -45.5 -172.5t-126 -127t-177.5 -47.5q-102 0 -183 44.5t-125 121t-44 170.5zM114 -18l1156 1434q33 29 90 29q14 0 25 -7t11 -16l-1156 -1433q-8 -11 -36.5 -22.5t-55.5 -11.5q-7 0 -12.5 1.5t-9 4 t-6 5.5t-3.5 5.5l-2 5t-1 4.5v1zM300 1120q0 -51 9 -101.5t27 -95t48.5 -72t70.5 -27.5q26 0 46.5 10.5t33.5 30t21.5 42t12.5 52.5t5.5 54.5t1.5 54.5q0 52 -9.5 103.5t-27.5 96.5t-49.5 73t-70.5 28q-20 0 -36.5 -6t-28.5 -18t-21 -26.5t-14.5 -34t-9.5 -38t-6 -42.5 t-2.5 -42.5t-0.5 -41.5zM753 336q0 93 45.5 172t126.5 126t177 47q154 0 253 -95t99 -239q0 -93 -46 -172.5t-126.5 -127t-177.5 -47.5q-154 0 -252.5 96.5t-98.5 239.5zM965 365q0 -51 9.5 -101.5t27 -95t48.5 -72t70 -27.5q26 0 46.5 10.5t33.5 30t21.5 42t12.5 52.5 t5.5 54.5t1.5 55.5q0 51 -9.5 102.5t-27.5 96.5t-49.5 73t-70.5 28q-26 0 -46.5 -10.5t-33 -30.5t-21 -42.5t-12 -53.5t-5 -55.5t-1.5 -56.5z" />
<glyph unicode="&#x26;" horiz-adv-x="1559" d="M125 349q0 52 11 99t26 82t42 70t48 57t57 49t55.5 39.5t54.5 35.5q14 8 20 12q-4 7 -30 42t-36.5 54t-28.5 54.5t-25.5 73.5t-7.5 81q0 75 25.5 139t70.5 110t110.5 72t143.5 26q112 0 202.5 -32t142 -91.5t51.5 -136.5q0 -58 -20 -110t-52 -89.5t-75.5 -69t-84.5 -52 t-86 -35.5q31 -41 155 -209t159 -215q7 8 24 28t26.5 31.5t25 30t24.5 30t18.5 25t13.5 22.5t4 15q0 23 -22.5 31.5t-54 8.5h-32.5q-7 10 -6.5 39.5t8.5 32.5l152 -2q83 -3 287 6q7 -3 6 -33.5t-11 -40.5q-1 0 -24.5 -1.5t-44.5 -4t-46.5 -9.5t-38.5 -18q-11 -9 -44 -44.5 t-68 -76.5t-75 -85.5t-59 -64.5l13.5 -16.5t25 -30t31 -33t35 -33t32.5 -23.5t28 -10q15 0 31 7t28.5 16.5t27 25t22.5 25t20 26t15 19.5q10 0 20.5 -5.5t20 -14.5t15.5 -20q-3 -10 -23 -38.5t-53.5 -67t-72 -74t-84.5 -60.5t-85 -25q-44 0 -80 11t-67 34.5t-50 42.5t-50 53 q-150 -143 -385 -143q-47 0 -95 11t-93 31.5t-84.5 52t-69 70t-47 89t-17.5 104.5zM417 493q0 -38 7.5 -76t23 -75.5t40.5 -70t57 -57t75 -39t92 -14.5q36 0 65.5 8.5t45 18.5t33.5 25q-168 227 -354 488q-85 -73 -85 -208zM571 1178q0 -41 11 -81.5t31 -77.5t33.5 -58.5 t34.5 -48.5q146 76 146 237q0 31 -6.5 64.5t-19.5 69t-40 58.5t-62 23q-58 0 -93 -52t-35 -134z" />
<glyph unicode="'" horiz-adv-x="405" d="M74 1404q0 76 47 132.5t116 56.5q63 0 86 -50q-1 -9 -5 -61.5t-6 -72t-6 -68t-7 -77t-7.5 -69.5t-9.5 -75.5t-11 -66.5q-7 -11 -24 -23.5t-34 -19.5q-17 0 -27 14q-7 17 -21.5 55t-22.5 59.5t-20.5 55.5t-19.5 58t-14.5 52.5t-10.5 53.5t-3 46z" />
<glyph unicode="(" horiz-adv-x="651" d="M74 683q0 110 16 212.5t44 186t64.5 159t80 135.5t87.5 109.5t89 86t83 61.5t71 40q8 -4 15 -29t5 -31q-29 -26 -65.5 -76t-80 -136t-78.5 -188t-58.5 -242.5t-23.5 -287.5t23.5 -287t58.5 -242t78.5 -188.5t80 -136.5t65.5 -75q2 -4 -1 -17t-8.5 -27t-10.5 -17 q-39 18 -82.5 47t-96.5 77.5t-102 107.5t-96 140t-81.5 171.5t-55.5 206.5t-21 240z" />
<glyph unicode=")" horiz-adv-x="651" d="M24 -246q24 20 53.5 59.5t65 99t68.5 141t60 175t43.5 212t16.5 242.5q0 147 -23.5 287.5t-59 242.5t-79 188t-79.5 136t-66 76q-2 6 5.5 31t15.5 29q33 -15 71 -40t83 -61.5t89 -86t87 -109.5t79.5 -135.5t65 -159t44.5 -186t16 -212.5q0 -124 -21 -240t-55.5 -206.5 t-81.5 -171.5t-96 -140t-102 -107.5t-97 -77.5t-82 -47q-8 5 -15.5 30t-5.5 31z" />
<glyph unicode="*" horiz-adv-x="987" d="M79 1026q-3 25 5.5 50t31 45.5t55.5 27.5q35 9 70 4t58.5 -15.5t55.5 -18t60 -3.5q27 2 29 13q2 6 -9 25q-14 24 -36 45t-41.5 34.5t-44.5 38.5t-43 56q-25 47 -13.5 90.5t44.5 62.5q17 8 36.5 9.5t39.5 -3.5t38.5 -19.5t31.5 -36.5q18 -31 24 -66t3.5 -60.5t0 -57.5 t14.5 -58q11 -22 22 -24q12 0 21 9q24 26 37.5 61.5t30 75t46.5 73.5q22 26 53 35.5t57.5 4t43.5 -21.5q29 -28 30.5 -70t-32.5 -84q-24 -27 -55 -43.5t-56.5 -21.5t-55 -17.5t-50.5 -32.5q-16 -18 -16 -29q0 -10 18 -18q32 -14 71 -16t82 -5t85 -21q46 -19 63.5 -64 t1.5 -80q-18 -35 -58.5 -49t-89.5 5q-28 11 -49 29.5t-34.5 37.5t-26.5 37.5t-30 36.5t-37 29q-1 0 -2.5 1t-6 3t-8.5 3t-8 1.5t-7 -1.5q-6 -4 -9 -18q-3 -35 7 -72t20 -78.5t5 -87.5q-5 -49 -41.5 -79t-72.5 -26q-40 7 -67.5 41.5t-22.5 83.5q4 37 19.5 68.5t32.5 51 t33.5 47t21.5 55.5q3 23 -4 32q-3 5 -20 2q-34 -8 -66.5 -28.5t-69.5 -42.5t-81 -32q-49 -11 -88 14t-47 62z" />
<glyph unicode="+" horiz-adv-x="1214" d="M69 522q0 15 5.5 46t17.5 48h446l2 446q16 13 47 18.5t47 5.5q36 0 36 -20l-2 -450h456q10 0 15.5 -10t5.5 -21q0 -60 -32 -99h-443v-443q-13 -9 -34.5 -15t-40 -8t-31.5 -2q-9 0 -16.5 5.5t-7.5 12.5v450h-457q-14 0 -14 36z" />
<glyph unicode="," horiz-adv-x="501" d="M43 -298q19 12 43 34t51.5 53t46 71.5t18.5 79.5q0 17 -8 31t-20 24t-26 24t-26 29.5t-20 42.5t-8 61q0 13 4.5 31t16.5 41t30.5 42t50 32t71.5 13q49 0 98 -35q7 -13 12.5 -30t10 -36t6.5 -39.5t2 -40.5q0 -45 -8.5 -89.5t-24.5 -85.5t-38 -79.5t-49 -72t-57 -62.5 t-63 -52.5t-66 -40.5q-9 3 -18 10t-15.5 15t-10 16t-3.5 13z" />
<glyph unicode="-" horiz-adv-x="840" d="M125 470q0 56 34 128q466 25 540 27q8 0 12 -4t4 -16q0 -28 -10 -66.5t-24 -68.5q-46 -3 -540 -24q-9 0 -12.5 5t-3.5 19z" />
<glyph unicode="." horiz-adv-x="524" d="M94 148q0 67 49.5 115t118.5 48q70 0 119 -51t49 -119q0 -67 -48.5 -116.5t-117.5 -49.5q-70 0 -120 50.5t-50 122.5z" />
<glyph unicode="/" horiz-adv-x="945" d="M65 -63l663 1718q9 18 37 34t73 16q38 0 42 -18l-663 -1718q-4 -17 -32 -32t-80 -15q-15 0 -25 3.5t-12 7.5z" />
<glyph unicode="0" d="M58 697q0 143 40.5 273.5t107.5 224.5t158.5 149.5t191.5 55.5q101 0 189.5 -47.5t155 -135.5t105 -222.5t38.5 -297.5q0 -144 -39 -274.5t-104.5 -224.5t-155.5 -149.5t-189 -55.5q-81 0 -155 30t-136.5 89.5t-108.5 142.5t-72 196.5t-26 245.5zM349 676 q0 -103 11 -195.5t30 -163.5t45.5 -123t58 -79.5t66.5 -27.5q52 0 90.5 51t60 142t32 204t10.5 251q0 265 -51.5 418t-141.5 153q-54 0 -95 -48.5t-66 -135t-37.5 -198.5t-12.5 -248z" />
<glyph unicode="1" d="M202 1189q0 26 4 27q109 47 240 104.5t200.5 88.5t72.5 31h5q8 0 16 -15t10 -27q-20 -65 -20 -211v-862q0 -47 0.5 -69.5t2 -53.5t5.5 -51.5t10 -36.5q12 -30 144 -40q8 -12 7.5 -42t-7.5 -41q-153 16 -307 16t-307 -16q-7 11 -7.5 41t7.5 42q132 10 143 40q12 31 15 76 t3 135v755q0 72 -9.5 95t-37.5 23q-18 0 -73.5 -16.5t-87.5 -34.5q-13 6 -21 19t-8 23z" />
<glyph unicode="2" d="M67 40q34 38 118.5 129.5t124.5 137.5t104 129.5t119 170.5q130 206 130 399q0 54 -21 102.5t-54.5 82t-77.5 53t-89 19.5q-44 0 -84 -14t-69 -37t-49 -43.5t-36 -41.5t-17 -23q-13 0 -31.5 16t-18.5 38q14 29 38 62.5t65.5 73t90 71t116 52.5t138.5 21q65 0 123.5 -15.5 t107 -47.5t84.5 -76.5t55.5 -105t19.5 -131.5q0 -190 -170 -390q-226 -268 -421 -444h385q26 0 49 6.5t39.5 15.5t32.5 25t26 29t22 35t17.5 34.5t15.5 35.5q2 4 3 6.5t2.5 6t3.5 6.5q6 16 31 16q31 0 45 -14q-8 -36 -29 -106t-41.5 -131.5l-41 -123t-23.5 -69.5h-815 q-18 22 -18 40z" />
<glyph unicode="3" d="M87 166q0 20 8 41t22 38.5t36.5 28t50.5 10.5q10 0 19.5 -1.5t19 -6.5t17 -9t17.5 -13t15 -13t15.5 -16t13.5 -15t14 -16t12 -15q85 -98 159 -98q103 0 157 82.5t54 235.5q0 85 -29 158t-86 118.5t-129 45.5q-49 0 -124 -20q-7 9 -13.5 25t-6.5 29t3 20q42 7 83 19 t87 33.5t80 48t56.5 65.5t22.5 85q0 51 -14.5 96t-40.5 78.5t-66.5 52.5t-89.5 19q-34 0 -70 -10.5t-63.5 -25t-52.5 -32t-38.5 -29.5t-19.5 -19q-11 3 -19 24t-8 39q70 92 176.5 155.5t231.5 63.5q35 0 76 -8t88 -29t84.5 -52t62.5 -82.5t25 -115.5q0 -53 -20 -102.5 t-48.5 -84t-64.5 -63.5t-62 -44t-47 -24q18 -1 41.5 -6t56 -16.5t64 -28.5t63 -44t55.5 -60.5t39 -81.5t15 -103q0 -92 -34.5 -173.5t-93.5 -141.5t-135.5 -104t-162.5 -65.5t-172 -21.5q-100 0 -181.5 25.5t-121.5 56.5q-11 14 -19 46t-8 51z" />
<glyph unicode="4" d="M47 446q145 180 405.5 507.5t365.5 457.5q10 12 15 17t13 10t16 5q12 0 36.5 -22.5t24.5 -40.5v-838h101q12 0 21.5 -29.5t9.5 -75.5q0 -15 -5 -27t-10 -16l-5 -4h-112v-381q-59 -20 -152 -20q-130 0 -130 29v372h-569q-25 12 -25 56zM239 542h1h1h1h1h1h1h1h1h1h1h1h1h1 h1h1h1h1h1h1h1h1h1h1h1h1h1h1h1h1h1h1h1h1h1h1h1h1h1h1h1h1h1h1h1h1h1h1h1h1h1h1h1h1h1h1h1h1h1h1h1h1h1h1h1h1h1h1h1h1h1h1h1h1h1h1h1h1h1h1h1h1h1h1h1h1h1h1h1h1h1h1h1h1h1h1h1h1h1h1h1h1h1h1h1h1h1h1h1h1h1h1h1h1h1h1h1h1h1h1h1h1h1h1h1h1h1h1h1h1h1h1h1h1h1h1h1h2h1h1h1 h1h1h1h1h1h1h1h1h1h1h1h1h1h1h1h2h1h1h1h1h1h1h1h1h1h1h1h2h1h1h1h1h1h1h1h1h1h2h1h1h1h1h1h1h1h1h2h1h1h1h1h1h1h1h2h1h1h1h1h1h1h2h1h1h1h1h1h1h2h1h1h1h1h1h1h2h1h1h1h1h1h2h1h1h1h1h1h1h2h1h1h1h1h1h2h1h1h1h1h1h2h1h1h1h1h1h2h1h1h1h1h2h1h1h1h1h1h2h1h1h1h1h1h2h1h1h1 h1h2h1h1h1h1h1h2h1h1h1h1h2h1h1h1h1h1h2h1h1h1h1h1h2h1h1h1h1h1h2h1h1h1h1h1h2h1h1h1h1h1h2h1h1h1h1h1h2h1h1h1h1h1h1h2h1h1h1h1h1h1h2h1h1h1h1h1h1h1h1h2h1h1h1h1h1h1h1h1h2h1h1h1h1h1h1h1h1h1h1h1h1h1h1h10v502q-92 -118 -232.5 -295.5t-168.5 -206.5h-1z" />
<glyph unicode="5" d="M94 166q0 45 31.5 81.5t85.5 36.5q19 0 38.5 -8t38.5 -25.5t30.5 -30t29.5 -34.5q4 -5 6 -7q84 -98 157 -98q69 0 116 37.5t70.5 108.5t23.5 172q0 73 -30 138t-76 107t-99.5 66.5t-103.5 24.5q-63 0 -111.5 -7.5t-60 -11.5t-34.5 -13q-9 0 -15.5 16.5t-6.5 28.5 q3 5 57 297t68 377h399q91 0 206 25q1 0 5.5 -1.5t6.5 -2.5t6 -2.5t5.5 -3.5t3.5 -5t3 -7t1 -9q0 -18 -17.5 -65.5t-37.5 -90.5t-30 -59q-140 -14 -336 -18q-72 -3 -148 -3l-53 -262q126 30 237 30q81 0 162.5 -35t144 -93t102 -138.5t39.5 -166.5q0 -92 -33.5 -175.5 t-91 -147t-132 -110.5t-159.5 -71t-171 -24q-98 0 -179 25.5t-121 56.5q-12 14 -19.5 45t-7.5 52z" />
<glyph unicode="6" d="M85 542q0 90 22 178.5t60 165t82 140t96 119.5q69 72 148 128.5t155 90.5t142 53.5t128 27.5q26 -19 18 -58q-138 -57 -242.5 -141t-170 -181.5t-102.5 -213.5q29 17 61.5 29.5t64 19.5t58.5 7q68 0 127.5 -14.5t112.5 -48t90.5 -84t59.5 -126.5t22 -170 q0 -77 -26.5 -150.5t-72.5 -131.5t-106 -102.5t-130 -68.5t-140 -24q-92 0 -177 46t-146 122t-97.5 178t-36.5 209zM381 495q0 -60 5.5 -116t19.5 -111t34.5 -96t54 -66t74.5 -25q65 0 108.5 89.5t43.5 237.5q0 42 -3.5 80.5t-11 75.5t-19 68.5t-29 58t-39 45t-50.5 29 t-63 10.5q-25 0 -58 -10.5t-54 -32.5q-13 -117 -13 -237z" />
<glyph unicode="7" d="M72 1017q9 39 48.5 203.5t49.5 204.5l645 2q34 0 81 2t82 4.5t39 2.5q13 0 13 -34q0 -17 -44 -107q-9 -19 -14 -29l-609 -1284q-9 -7 -40 -7q-8 0 -22 3t-32.5 8.5t-31.5 16.5t-13 26q70 101 269 475t354 697h-520q-32 0 -58.5 -12.5t-43.5 -29t-32 -45t-22.5 -49 t-18.5 -53.5l-1.5 -2t-2 -2.5t-1.5 -2t-3 -2t-4.5 -1.5t-6 -1.5t-8.5 -1.5q-10 -1 -21.5 1.5t-19.5 7t-12 9.5z" />
<glyph unicode="8" d="M81 343q0 66 25.5 125t67.5 101t91 71.5t102 44.5q7 4 -4 12q-9 7 -32 26.5t-39 33t-40 37.5t-41 45t-36 50.5t-31 58.5t-20 65.5t-8 75.5q0 71 38 134t99 105t138 66t156 24q62 0 122 -13t113.5 -39.5t93.5 -64.5t63.5 -91t23.5 -115q0 -34 -9.5 -67t-26.5 -62 t-40 -54.5t-51 -47.5t-57.5 -39.5t-61.5 -31.5q-4 -2 -4 -6t4 -5q31 -19 63 -42t78 -64.5t80 -85t58.5 -101.5t24.5 -115q0 -58 -19 -111.5t-52.5 -95.5t-79 -76.5t-98.5 -57t-112 -34.5t-118 -12q-72 0 -136 10.5t-124.5 37t-104.5 66.5t-70 102t-26 140zM376 349 q0 -50 10.5 -96t31 -85.5t57.5 -63t85 -23.5q39 0 71 14.5t52.5 39.5t31.5 58t11 71q0 36 -11 72t-26 64.5t-40 59.5t-44 51t-48 44.5t-42 34.5t-36 26q-16 11 -22 11q-1 0 -4 0.5t-4 0t-1 -2.5q-72 -88 -72 -276zM403 1147q0 -37 10.5 -72.5t28 -63.5t37.5 -52t43 -43 t40.5 -31t33.5 -20q22 -12 27 -12q13 0 13 7q49 74 49 229q0 39 -8.5 79.5t-25.5 76.5t-45.5 58.5t-63.5 22.5q-62 0 -100.5 -51.5t-38.5 -127.5z" />
<glyph unicode="9" d="M85 968q0 95 41 184t107.5 152.5t152.5 102t174 38.5q92 0 177 -46t146 -122t97.5 -178t36.5 -210q0 -89 -22 -178t-60 -165.5t-82 -140t-96 -118.5q-69 -73 -148 -129.5t-155 -90.5t-142 -53t-128 -27q-26 19 -18 58q138 57 242.5 140.5t170 181t102.5 213.5 q-44 -25 -94 -40.5t-90 -15.5q-56 0 -106.5 10.5t-97.5 32t-84.5 57.5t-65.5 84t-43 114t-15 146zM381 1024q0 -75 11 -138.5t35.5 -116.5t67.5 -83t101 -30q25 0 58 11t54 32q13 65 13 237q0 76 -9.5 145.5t-30 132t-59 100t-89.5 37.5q-65 0 -108.5 -89.5t-43.5 -237.5z " />
<glyph unicode=":" horiz-adv-x="586" d="M125 148q0 67 50 115t118 48q70 0 119 -51t49 -119q0 -67 -48.5 -116.5t-116.5 -49.5q-71 0 -121 50.5t-50 122.5zM125 802q0 67 50 115t118 48q70 0 119 -51t49 -119q0 -67 -48.5 -116.5t-116.5 -49.5q-71 0 -121 50.5t-50 122.5z" />
<glyph unicode=";" horiz-adv-x="568" d="M87 -298q20 12 44 34t51.5 53t45.5 71.5t18 79.5q0 19 -11 35t-26.5 30t-31.5 30.5t-27 46.5t-11 70q0 11 3 25t10.5 32.5t21 36t31.5 32.5t45.5 24t60.5 9q50 0 99 -35q7 -13 12.5 -30t10 -36t6.5 -39.5t2 -40.5q0 -62 -16.5 -124t-46 -115t-68.5 -100t-83.5 -83 t-92.5 -60q-17 5 -32 24t-15 30zM110 804q0 67 50.5 115.5t119.5 48.5q67 0 113 -48t46 -116q0 -69 -46 -122t-113 -53q-69 0 -119.5 53.5t-50.5 121.5z" />
<glyph unicode="&#x3c;" horiz-adv-x="1108" d="M67 486q0 34 41 54l835 419q9 4 11 4q4 0 9.5 -14t13.5 -44t15 -69q1 -6 -0.5 -11.5t-3.5 -7.5l-2 -2l-713 -347l715 -354q7 -2 7 -13q0 -17 -13.5 -76t-22.5 -59q-3 0 -11 5l-840 425q-41 22 -41 90z" />
<glyph unicode="=" horiz-adv-x="1252" d="M150.5 332q1.5 27 16 61t29.5 39h903q14 -4 13 -30.5t-14 -60t-29 -41.5h-909q-11 5 -9.5 32zM150.5 654.5q1.5 27.5 16 61.5t29.5 39h903q14 -4 13 -30.5t-14 -60.5t-29 -41h-909q-11 4 -9.5 31.5z" />
<glyph unicode="&#x3e;" horiz-adv-x="1108" d="M114 101l7 13l715 354l-713 347l-2.5 2.5t-3.5 7t-1 11.5q5 24 10 44.5t9 35.5t8 26t7 16t5 5t11 -4l835 -419q41 -20 41 -54q0 -68 -41 -90l-840 -425q-9 -5 -11 -5q-9 0 -22.5 59t-13.5 76z" />
<glyph unicode="?" horiz-adv-x="893" d="M121 1308q0 28 11 60.5t23 42.5q66 38 201 38q24 0 57.5 -5t78 -18.5t88.5 -33t87.5 -51.5t76.5 -71.5t53.5 -95t20.5 -119.5q0 -32 -5.5 -61t-17.5 -54t-24 -45.5t-32.5 -41t-36 -35t-42 -32t-41.5 -27t-43.5 -27t-40.5 -24.5q-12 -8 -47 -28.5t-54.5 -33t-44 -33 t-37.5 -40.5q-5 -6 -7.5 -15.5t-3.5 -21t-1 -20v-21v-16.5q-3 -11 -14 -25.5t-19 -14.5q-12 0 -27.5 9t-24.5 18q-15 35 -29.5 99.5t-14.5 124.5q0 37 11.5 71.5t27.5 59t42.5 49.5t47 40t50.5 35q237 157 237 247q0 25 -13 48.5t-41.5 41t-66.5 17.5q-22 0 -47 -14 t-48 -34.5t-46.5 -41t-51 -35t-53.5 -14.5q-61 0 -100 45t-39 103zM150 148q0 69 48 116t113 47q71 0 119.5 -47t48.5 -116q0 -70 -46 -121.5t-113 -51.5q-65 0 -117.5 50t-52.5 123z" />
<glyph unicode="@" horiz-adv-x="1718" d="M103 370q0 109 30.5 220.5t86 214t137 192.5t179 155.5t217 104t246.5 38.5q108 0 200 -23.5t161.5 -66.5t123 -102t87.5 -131t51.5 -153t17.5 -169q0 -126 -41 -248.5t-108 -213.5t-158.5 -147.5t-187.5 -56.5q-43 0 -81 11.5t-70 33.5t-50.5 60.5t-18.5 87.5q0 41 9 65 q-17 -34 -49 -75t-74 -82t-94.5 -68.5t-100.5 -27.5q-37 0 -66.5 6.5t-59 25t-48.5 49t-31 81t-12 118.5q0 80 29 167t78 166t117.5 151t143.5 124.5t158.5 83.5t160.5 31q61 0 137 -8.5t108 -20.5l-126 -679q-7 -26 -7 -56v-15v-19.5t1.5 -19.5t5 -20t9 -15t14.5 -12t22 -4 q33 0 73 26t78 74t69.5 109.5t51 141t19.5 160.5q0 93 -18.5 175.5t-60.5 156t-103.5 126t-153.5 83t-206 30.5q-111 0 -216.5 -34t-191 -93t-157.5 -139t-120.5 -171t-75.5 -190.5t-27 -196.5q0 -95 24 -183t66.5 -157.5t96 -123t115.5 -89.5q37 -22 72.5 -35.5t52.5 -17 t47 -8.5q0 -13 -31 -29t-58 -16q-49 0 -101 20q-78 29 -148 86.5t-125 137t-87 184.5t-32 220zM674 332q0 -60 24.5 -90.5t65.5 -30.5q71 0 138 110t104 293l45 228q-11 13 -18 18.5t-16.5 8t-24.5 2.5q-67 0 -127.5 -48t-101.5 -125t-65 -173.5t-24 -192.5z" />
<glyph unicode="A" horiz-adv-x="1512" d="M-30 39q0 19 5 33q25 0 83.5 23.5t73.5 47.5q38 63 79 157l477 1098q11 25 38.5 55t44.5 30q14 0 28.5 -5t18.5 -11l459 -1135q15 -37 34 -88.5t29 -73.5q13 -32 39.5 -53.5t57 -29.5t48.5 -10.5t31 -2.5q8 -16 10 -46q0 -5 1 -10q0 -22 -6 -27q-20 1 -131 9.5t-169 8.5 q-46 0 -109 -3.5t-136 -8.5t-93 -6q-9 8 -9 45.5t9 37.5q32 0 71 11t61 29q20 17 20 38q0 9 -33.5 94.5t-67.5 165.5l-34 81q-8 9 -15 9q-43 2 -215 2q-155 0 -233 -2q-10 0 -16 -11q-56 -126 -81 -189q-17 -43 -33 -92t-16 -60q0 -20 24 -36t56.5 -24t57.5 -12t35 -4 q9 -13 8.5 -44t-6.5 -39q-157 18 -242 18q-25 0 -50 -1t-40 -1.5t-42.5 -3t-35 -3.5t-40 -5t-36.5 -4q-7 7 -9 35q-1 7 -1 13zM470 627q0 -9 5 -9q67 -6 186 -6q110 0 179 4q2 0 3.5 3l2.5 5l1 3l-186 439z" />
<glyph unicode="B" horiz-adv-x="1386" d="M77 37q0 27 8 39q133 10 143 38q13 31 15.5 76t2.5 135v824q0 61 -0.5 90.5t-4.5 64t-13 56.5q-1 4 -6 8.5t-13 7.5t-16 5.5t-19.5 4.5t-20 3.5t-21 2.5t-19 1.5t-16.5 1t-12 1.5q-8 11 -8 39q1 2 1 3q0 30 7 40q101 -6 320 -6q43 0 158.5 3t184.5 3q65 0 127.5 -11.5 t122 -38.5t104 -66.5t72 -100.5t27.5 -137q0 -50 -20 -97.5t-48 -80.5t-63.5 -60.5t-62.5 -42.5t-48 -23q-14 -5 -14 -11l3 -3q35 -4 80 -21t95 -50t91 -75.5t67.5 -102.5t26.5 -127q0 -108 -64 -203.5t-171 -159.5q-47 -28 -105 -45t-115 -22t-121 -7q-32 -1 -63.5 -1 t-61.5 1h-522q-8 11 -8 44zM560 244q0 -103 18 -130q19 -27 141 -27q33 0 64.5 9.5t63.5 32.5t56 57t38.5 88t14.5 120q0 53 -8 101t-29 94.5t-52 80t-80 54t-111 20.5h-116v-500zM560 831h116q87 0 140 68.5t53 191.5q0 298 -186 298q-23 0 -38.5 -1t-32 -3.5t-27 -8 t-14.5 -14.5q-11 -27 -11 -137v-394z" />
<glyph unicode="C" horiz-adv-x="1509" d="M90 721q0 159 61.5 302.5t165.5 246.5t247.5 163.5t300.5 60.5q113 0 240.5 -11.5t225.5 -30.5q0 -1 38 -162t38 -177q0 -6 -9 -14t-23 -13.5t-27 -5.5q-22 0 -31 9q-5 18 -12.5 38t-20 46.5t-31 51.5t-42.5 51t-57 47t-71.5 38.5t-89.5 27t-108 9.5q-92 0 -166.5 -33.5 t-124 -90.5t-83 -135.5t-48.5 -166t-15 -184.5q0 -89 12.5 -173.5t37 -164t64.5 -146t92 -116t122.5 -77.5t153.5 -28q173 0 277 96q43 38 81.5 106t54.5 110.5t21 61.5q48 0 79 -27q0 -32 -35 -182t-57 -158q-74 -27 -111.5 -39.5t-105.5 -31.5t-134 -27t-140 -8 q-156 0 -297.5 56.5t-245.5 153t-165.5 234.5t-61.5 293z" />
<glyph unicode="D" horiz-adv-x="1704" d="M77 37q0 27 8 39q133 10 143 38q13 31 15.5 76t2.5 135v824q0 61 -0.5 90.5t-4.5 64t-13 56.5q-1 4 -6 8.5t-13 7.5t-16 5.5t-19.5 4.5t-20 3.5t-21 2.5t-19 1.5t-16.5 1t-12 1.5q-8 11 -8 39q1 2 1 3q0 30 7 40q101 -6 320 -6q54 0 176.5 3t166.5 3q194 0 353 -49 t271.5 -141t174 -229t61.5 -306q0 -154 -44.5 -280t-124 -214.5t-190 -148.5t-240 -88.5t-277.5 -28.5h-647q-8 11 -8 44zM560 316q0 -132 18 -177q10 -23 52.5 -37.5t88.5 -14.5q274 0 403.5 156.5t129.5 484.5q0 161 -42 288t-118 208t-179.5 123t-229.5 42 q-23 0 -38.5 -1t-32 -3.5t-27 -8t-14.5 -14.5q-11 -27 -11 -137v-909z" />
<glyph unicode="E" horiz-adv-x="1348" d="M77 37q0 27 8 39q133 10 143 38q13 31 15.5 76t2.5 135v824q0 61 -0.5 90.5t-4.5 64t-13 56.5q-1 4 -6 8.5t-13 7.5t-16 5.5t-19.5 4.5t-20 3.5t-21 2.5t-19 1.5t-16.5 1t-12 1.5q-8 11 -8 39q1 2 1 3q0 30 7 40q101 -6 320 -6q55 0 371 7t357 8q7 -50 18 -106t26.5 -126 t20.5 -99q-3 -3 -12.5 -6t-20 -4t-18.5 -1q-29 0 -36 18q-20 52 -39 88t-47.5 70t-67.5 51t-88 17h-186q-23 0 -38.5 -1t-32 -3.5t-27 -8t-14.5 -14.5q-11 -27 -11 -137v-401q0 -10 29.5 -17t66.5 -7h119q52 0 82 5.5t52.5 24.5t35.5 47t27 79q4 18 27 18q31 0 43 -11v-430 q-9 -9 -41 -9q-27 0 -31 18q-12 50 -28 81t-26.5 40.5t-23.5 15.5q-38 15 -171 15q-161 0 -161 -31v-347q0 -132 18 -177q6 -15 30.5 -25.5t54 -15t61.5 -4.5h147q135 0 209 74q65 65 121 213q3 13 31 13q8 0 19 -1t20.5 -3t17.5 -4.5t10 -4.5q-5 -14 -26.5 -74.5t-31 -88.5 t-25 -76t-24.5 -83t-14 -63q-1006 0 -1093 -3q-8 11 -8 44z" />
<glyph unicode="F" horiz-adv-x="1229" d="M77 35q0 27 8 39q132 10 143 40q13 31 15.5 76t2.5 135v824q0 61 -0.5 90.5t-4.5 64t-13 56.5q-1 4 -6 8.5t-13 7.5t-16 5.5t-19.5 4.5t-20 3.5t-21 2.5t-19 1.5t-16.5 1t-12 1.5q-8 11 -8 39q1 2 1 3q0 30 7 40q101 -6 320 -6q55 0 371 7t357 8q7 -50 18 -106t26.5 -126 t20.5 -99q-3 -3 -12.5 -6t-20 -4t-18.5 -1q-29 0 -36 18q-20 52 -39 88t-47.5 70t-67.5 51t-88 17h-186q-23 0 -38.5 -1t-32 -3.5t-27 -8t-14.5 -14.5q-11 -27 -11 -137v-410q0 -10 29.5 -17t66.5 -7h119q52 0 82 5.5t52.5 24.5t35.5 47t27 80q4 17 27 17q31 0 43 -11v-430 q-9 -9 -41 -9q-27 0 -31 18q-12 50 -28 81t-26.5 40.5t-23.5 15.5q-38 15 -171 15q-161 0 -161 -31v-329q0 -47 0.5 -69.5t2 -53.5t5 -51.5t10.5 -36.5q11 -28 163 -40q8 -12 8 -42t-8 -41q-152 16 -340 16q-163 0 -316 -16q-8 11 -8 44z" />
<glyph unicode="G" horiz-adv-x="1617" d="M90 721q0 155 61.5 297.5t165.5 246.5t247.5 166.5t300.5 62.5q113 0 240.5 -11.5t225.5 -30.5q0 -1 38 -162t38 -177q0 -6 -9 -14t-23 -13.5t-27 -5.5q-22 0 -31 9q-6 22 -14 44.5t-25 54.5t-39 59.5t-56 56t-74.5 48.5t-97.5 33t-122 13q-96 0 -172.5 -35t-126 -93 t-82.5 -139t-46.5 -168.5t-13.5 -185.5q0 -106 18.5 -206.5t58 -189.5t94.5 -156t133.5 -105.5t170.5 -38.5q94 0 175 35q20 11 20 34v260v20v19t-0.5 15.5t-2 18.5t-3.5 18t-5 23q-5 16 -19.5 28t-31.5 18t-38.5 9.5t-34.5 4.5t-24 1q-9 0 -10 37t7 46q39 -2 108.5 -5.5 t126.5 -6t108 -2.5q27 0 56 1t57 2.5t53.5 3t56 3.5t53.5 4q2 -9 3.5 -20.5t1.5 -22t-1 -20t-3 -15t-4 -5.5q-9 0 -32 -4t-49 -11t-37 -14q-5 -4 -10 -13.5t-8.5 -22.5t-6 -29t-2.5 -32v-239q0 -12 6.5 -36.5t6.5 -28.5q0 -29 -78 -59q-70 -26 -112.5 -40.5t-110.5 -34 t-136.5 -28.5t-142.5 -9q-157 0 -298.5 56.5t-245.5 153t-165 234.5t-61 293z" />
<glyph unicode="H" horiz-adv-x="1659" d="M77 35q0 27 8 39q132 10 143 40q13 31 15.5 76t2.5 135v824q0 61 -0.5 90.5t-4.5 64t-13 56.5q-11 30 -143 40q-8 11 -8 39q1 2 1 3q0 30 7 41q153 -16 320 -16q163 0 316 16q7 -11 7.5 -41t-7.5 -42q-131 -10 -143 -40q-12 -31 -15 -76t-3 -135v-318q0 -2 1 -3.5t2 -2.5 l1 -1q28 0 82 -2t99.5 -3t90.5 -1q20 0 262 6q4 5 4 9l-2 316q0 47 -0.5 69.5t-2 53.5t-5.5 51t-10 37q-12 30 -143 40q-8 12 -8 42t8 41q152 -16 320 -16q163 0 316 16q7 -11 7 -41q0 -2 1 -3q0 -27 -8 -39q-132 -10 -144 -40q-12 -31 -15 -76t-3 -135v-824q0 -38 0.5 -56 t1 -46t2.5 -44t5.5 -34t8.5 -31q12 -30 144 -40q8 -11 8 -39q-1 -2 -1 -3q0 -30 -7 -41q-153 16 -321 16q-163 0 -315 -16q-8 11 -8 41t8 42q131 10 143 40q12 31 15 76t3 135v369l-5 12q-165 4 -259 4q-260 0 -274 -9l-2 -9v-367q0 -47 0.5 -69.5t2 -53.5t5 -51.5 t10.5 -36.5q12 -30 143 -40q8 -12 7.5 -42t-7.5 -41q-153 16 -320 16q-163 0 -316 -16q-8 11 -8 44z" />
<glyph unicode="I" horiz-adv-x="806" d="M77 35q0 27 8 39q132 10 143 40q13 31 15.5 76t2.5 135v824q0 61 -0.5 90.5t-4.5 64t-13 56.5q-11 30 -143 40q-8 11 -8 39q1 2 1 3q0 30 7 41q153 -16 320 -16q163 0 316 16q7 -11 7 -41q0 -2 1 -3q0 -27 -8 -39q-131 -10 -143 -40q-12 -31 -15 -76t-3 -135v-824 q0 -47 0.5 -69.5t2 -53.5t5 -51.5t10.5 -36.5q12 -30 143 -40q8 -11 8 -39q-1 -2 -1 -3q0 -30 -7 -41q-153 16 -320 16q-163 0 -316 -16q-8 11 -8 44z" />
<glyph unicode="J" horiz-adv-x="772" d="M-280 -352q0 58 40.5 104t93.5 46q59 0 128 -74q5 -4 18 -18t18.5 -19t16.5 -14.5t18 -13.5t16.5 -7.5t17.5 -3.5q21 0 38.5 8t31 25.5t24.5 37.5t18.5 53t13.5 63t9.5 77t5.5 84.5t3 95.5t1.5 101t0.5 109v847q0 61 -0.5 90.5t-4.5 64t-13 56.5q-12 30 -143 40 q-8 12 -7.5 42t7.5 41q153 -16 320 -16q163 0 316 16q8 -12 8 -44q0 -28 -8 -39q-132 -10 -144 -40q-8 -22 -12 -56.5t-4.5 -64t-0.5 -90.5v-829q0 -189 -46.5 -341t-132.5 -255t-209 -157.5t-275 -54.5q-21 0 -47.5 6.5t-48.5 16t-32 17.5q-2 2 -7 10t-7 11.5t-6.5 11.5 t-6.5 13.5t-4.5 14t-3.5 17.5t-1 18z" />
<glyph unicode="K" horiz-adv-x="1610" d="M77 35q0 27 8 39q132 10 143 40q13 31 15.5 76t2.5 135v824q0 61 -0.5 90.5t-4.5 64t-13 56.5q-11 30 -143 40q-8 11 -8 39q1 2 1 3q0 30 7 41q153 -16 320 -16q163 0 316 16q7 -11 7.5 -41t-7.5 -42q-131 -10 -143 -40q-12 -31 -15 -76t-3 -135v-394q158 125 233 204 q24 25 70.5 71.5t65 65.5t49.5 52t55 62.5t51 66.5q23 29 23 74q0 16 -14.5 27.5t-37.5 16t-40 6t-34 1.5q-8 13 -9 39.5t5 41.5q26 -2 88.5 -6t114 -7t88.5 -3q133 0 278 16q5 -11 4 -40t-9 -39q-15 -1 -27 -3t-46.5 -9t-62 -17t-61 -28t-56.5 -41q-253 -258 -421 -435 q-17 -19 -7 -35l403 -545q47 -59 101.5 -103t96 -65t84 -33t60.5 -14t30 -2q5 -12 5 -33v-13q-2 -31 -5 -37q-130 -9 -293 -9q-62 0 -118 15t-98 41t-73 53.5t-54 58.5q-25 35 -100.5 135.5t-166.5 221.5t-127 169q-9 9 -23 9q-15 0 -22 -13v-347q0 -47 0.5 -69.5t2 -53.5 t5 -51.5t10.5 -36.5q12 -30 143 -40q8 -12 7.5 -42t-7.5 -41q-153 16 -320 16q-163 0 -316 -16q-8 11 -8 44z" />
<glyph unicode="L" horiz-adv-x="1296" d="M77 37q0 27 8 39q133 10 143 38q13 31 15.5 76t2.5 135v824q0 61 -0.5 90.5t-4.5 64t-13 56.5q-11 30 -143 40q-8 11 -8 39q1 2 1 3q0 30 7 41q153 -16 320 -16q163 0 316 16q7 -11 7.5 -41t-7.5 -42q-131 -10 -143 -40q-12 -31 -15 -76t-3 -135v-833q0 -132 18 -177 q6 -15 30.5 -25.5t54 -15t61.5 -4.5h147q135 0 209 74q65 65 121 213q3 13 31 13q8 0 19 -1t20.5 -3t17.5 -4.5t10 -4.5q-5 -14 -26.5 -74.5t-31 -88.5t-25 -76t-24.5 -83t-14 -63h-773q-69 0 -142 -1t-120.5 -1.5t-57.5 -0.5q-8 11 -8 44z" />
<glyph unicode="M" horiz-adv-x="2031" d="M37 33q0 24 6 39q12 0 37.5 4.5t57.5 13.5t59 25.5t36 36.5q6 15 15.5 89t11.5 108q6 116 14 326.5t15.5 404.5t8.5 221q0 34 -11 50q-13 17 -64 33t-82 16q-9 15 -7 46.5t7 36.5q37 -2 110.5 -8t131.5 -6q44 0 126.5 6.5t108.5 7.5q165 -364 424 -950q6 -4 9 -4 q1 0 5 5.5t4 7.5q168 413 264 681q16 43 34.5 105.5t28.5 104.5l11 41q14 -2 110.5 -4.5t131.5 -2.5q44 0 139 7.5t123 8.5q7 -8 11.5 -39.5t-2.5 -45.5q-20 0 -61 -7.5t-56 -17.5q-18 -13 -25.5 -31t-5.5 -61q2 -58 8 -237t13 -379t12 -325q1 -4 2 -27.5t1.5 -29.5 t1.5 -26.5t2 -28t2.5 -24t3.5 -25.5t4.5 -22t5.5 -23t7 -20q8 -20 59.5 -30t81.5 -10q5 -14 7 -40q0 -6 1 -12q0 -18 -4 -31q-18 1 -132.5 9.5t-171.5 8.5q-46 0 -109 -3.5t-134.5 -8t-108.5 -6.5q-7 7 -8.5 38.5t3.5 44.5q34 0 89 11t68 31q8 13 13 37t5 42q0 96 -2 137 l-23 781q0 59 -15 59q-5 0 -11 -16l-395 -1066q-4 -12 -18.5 -33.5t-37 -41t-40.5 -19.5q-7 0 -20 4l-499 1172q-6 -179 -11.5 -340t-9 -269t-9.5 -263v-16q0 -30 2 -72q4 -54 7 -66q9 -30 86.5 -51t108.5 -21q6 -13 7.5 -39t-2.5 -44q-27 1 -124 9.5t-154 8.5 q-58 0 -149.5 -8t-130.5 -10q-8 12 -8 42z" />
<glyph unicode="N" horiz-adv-x="1702" d="M66 20v14q0 14 1 24q2 16 5 16q35 0 101 16t78 42q7 16 13.5 54t10 84t3.5 88v793q0 55 -10.5 114t-30.5 88q-13 19 -66 33t-81 14q-9 0 -11 37t6 46q20 -1 54 -4t60.5 -5.5t65 -4.5t73.5 -2q119 0 244 16q30 -61 115 -176.5t168.5 -218.5t224.5 -273.5t211 -258.5 q5 15 5 91v419q0 76 -7 170t-18 117q-8 18 -49.5 30t-76 15.5t-55.5 3.5q-3 0 -5 16.5t-1 37t6 29.5q40 -2 128 -10t145 -8t157 8.5t125 9.5q5 -13 5 -41.5t-9 -43.5q-21 0 -53.5 -2.5t-78.5 -15t-54 -34.5t-15 -116t-7 -159v-762q0 -80 9 -313q-9 -9 -56 -9q-30 0 -70 51 l-912 1123v-811q0 -59 8 -126t17 -92q5 -14 32 -26.5t59.5 -18.5t57.5 -9.5t35 -3.5q9 -15 9 -43.5t-5 -41.5q-25 1 -125 9.5t-157 8.5q-58 0 -145.5 -8t-127.5 -10q-5 9 -6 29z" />
<glyph unicode="O" horiz-adv-x="1702" d="M90 734.5q0 102.5 29 201.5t80.5 182t123.5 153.5t155.5 119t179.5 76t193 27.5t193 -27.5t180 -76t156 -119t123 -153.5t80.5 -182t29.5 -201.5t-29.5 -201t-80.5 -181.5t-123 -153t-156 -118.5t-180 -75.5t-193 -27t-193 27t-179.5 75.5t-155.5 118.5t-123.5 153 t-80.5 181.5t-29 201zM448 813q0 -89 10.5 -174t32 -169.5t58 -155t84.5 -125t116 -85t149 -30.5q65 0 119 24t92 66.5t67 97.5t45.5 121.5t24.5 133.5t8 137q0 88 -10.5 174t-33 170.5t-60 156t-86 126.5t-117.5 86t-150 31q-64 0 -117 -24.5t-90.5 -67.5t-65.5 -98.5 t-44.5 -122.5t-24 -134t-7.5 -138z" />
<glyph unicode="P" horiz-adv-x="1310" d="M77 35q0 27 8 39q132 10 143 40q13 31 15.5 76t2.5 135v824q0 61 -0.5 90.5t-4.5 64t-13 56.5q-1 4 -6 8.5t-13 7.5t-16 5.5t-19.5 4.5t-20 3.5t-21 2.5t-19 1.5t-16.5 1t-12 1.5q-8 11 -8 39q1 2 1 3q0 30 7 40q101 -6 320 -6q43 0 159 3t186 3q106 0 199 -26.5t164 -76 t112 -126t41 -169.5q0 -98 -38.5 -181.5t-102 -138.5t-144 -86t-166.5 -31q-53 0 -95 17.5t-59 33.5q-4 5 -8 15t-6 21t-2 20q0 16 7 16q30 -9 92 -9q82 0 135 81t53 210q0 67 -18 128.5t-50 108.5t-79 75.5t-102 28.5q-23 0 -38.5 -1t-32 -3.5t-27 -8t-14.5 -14.5 q-11 -27 -11 -137v-900q0 -47 0.5 -69.5t2 -53.5t5 -51.5t10.5 -36.5q12 -30 143 -40q8 -12 7.5 -42t-7.5 -41q-153 16 -320 16q-163 0 -316 -16q-8 11 -8 44z" />
<glyph unicode="Q" horiz-adv-x="1702" d="M90 735q0 102 29 201t80.5 182t123.5 153.5t155.5 119t179.5 76t193 27.5t193 -27.5t180 -76t156 -119t123 -153.5t80.5 -182t29.5 -201q0 -123 -42 -240t-114 -209.5t-169.5 -162.5t-207.5 -107q48 -24 107 -57t93.5 -51.5t81.5 -37.5t99 -27.5t118 -8.5q31 0 60.5 3 t47 6.5t32.5 6t19 2.5q7 0 17 -3.5t19.5 -10.5t15.5 -15l4 -11q-100 -53 -231 -92.5t-228 -39.5q-69 0 -138.5 25.5t-132 66t-122.5 83t-131.5 84t-136.5 61.5q-120 32 -227 101.5t-186 164.5t-125 217t-46 252zM448 813q0 -89 10.5 -174t32 -169.5t58 -155t84.5 -125 t116 -85t149 -30.5q65 0 119 24t92 66.5t67 97.5t45.5 121.5t24.5 133.5t8 137q0 88 -10.5 174t-33 170.5t-60 156t-86 126.5t-117.5 86t-150 31q-64 0 -117 -24.5t-90.5 -67.5t-65.5 -98.5t-44.5 -122.5t-24 -134t-7.5 -138z" />
<glyph unicode="R" horiz-adv-x="1552" d="M77 35q0 27 8 39q132 10 143 40q13 31 15.5 76t2.5 135v824q0 61 -0.5 90.5t-4.5 64t-13 56.5q-1 4 -6 8.5t-13 7.5t-16 5.5t-19.5 4.5t-20 3.5t-21 2.5t-19 1.5t-16.5 1t-12 1.5q-8 11 -8 39q1 2 1 3q0 30 7 40q101 -6 320 -6q43 0 159 3t186 3q106 0 195 -26t155.5 -76 t103.5 -128.5t37 -176.5q0 -38 -11 -76.5t-30.5 -71.5t-44.5 -63.5t-53.5 -55.5t-58 -44.5t-56.5 -32.5t-51 -19q73 -98 154 -202t126 -159l45 -56q47 -59 101 -103t96 -65t84.5 -33t60.5 -14t30 -2q5 -12 5 -33v-13q-2 -31 -5 -37q-130 -9 -293 -9q-62 0 -118 15t-98.5 41 t-73 53.5t-53.5 58.5l-363 486q-23 34 -40 34h-34v-345q0 -47 0.5 -69.5t2 -53.5t5 -51.5t10.5 -36.5q12 -30 143 -40q8 -12 7.5 -42t-7.5 -41q-153 16 -320 16q-163 0 -316 -16q-8 11 -8 44zM560 757h103q99 0 171.5 82.5t72.5 208.5q0 57 -5.5 104t-20.5 92.5t-39.5 76 t-64.5 49.5t-94 19q-23 0 -38.5 -1t-32 -3.5t-27 -8t-14.5 -14.5q-11 -27 -11 -137v-468z" />
<glyph unicode="S" horiz-adv-x="1167" d="M105 417q4 6 18 13.5t27.5 12.5t19.5 5q26 0 29 -18q7 -38 26.5 -84t53 -94.5t74.5 -88.5t96.5 -65.5t112.5 -25.5q45 0 82.5 12t68.5 36.5t49 67.5t18 101q0 29 -11 59t-24.5 54t-41.5 53t-46.5 47t-55.5 46t-53 39t-54.5 37t-45.5 30q-7 5 -22 14q-34 24 -51.5 36 t-49 34.5t-48 37.5t-42 39.5t-39 45t-30.5 48.5t-25 55t-14 61t-6 70q0 84 42 160.5t109.5 129.5t153.5 84.5t172 31.5q47 0 99 -6.5t84.5 -13.5t98 -22t94.5 -21q14 -141 25 -372q-10 -13 -25 -13q-63 0 -67 15q-5 40 -20.5 84t-42.5 89.5t-60.5 82t-79 60t-95.5 23.5 q-35 0 -66.5 -10t-60.5 -31t-46 -60.5t-17 -93.5q0 -29 11.5 -59.5t28 -56t46 -55.5t53.5 -51t62.5 -50t61.5 -44.5t62 -42.5q11 -7 34 -22q57 -37 86.5 -58.5t76.5 -64.5t70.5 -83t42.5 -101t19 -132q0 -90 -41.5 -168.5t-110 -131.5t-156.5 -83.5t-180 -30.5 q-176 0 -426 58q-15 67 -32.5 195t-21.5 186z" />
<glyph unicode="T" horiz-adv-x="1420" d="M18 1095l60 413q14 6 27 6q12 0 31 -6.5t40 -14.5t64 -14.5t98 -6.5h744q55 0 98.5 6.5t64 14.5t39.5 14.5t31 6.5q13 0 27 -6l60 -413q-5 -5 -27 -10t-38 -5q-19 0 -22 11q-17 112 -86.5 197t-153.5 85h-208v-1048q0 -47 0.5 -69.5t2 -53.5t5 -51.5t10.5 -36.5 q11 -30 143 -40q8 -12 7.5 -42t-7.5 -41q-153 16 -320 16q-163 0 -316 -16q-7 11 -7.5 41t7.5 42q132 10 143 40q12 31 15 76t3 135v1048h-208q-84 0 -153 -85t-87 -197q-3 -11 -22 -11q-15 0 -37.5 5t-27.5 10z" />
<glyph unicode="U" horiz-adv-x="1635" d="M41 1439q0 32 8 44q153 -16 321 -16q163 0 315 16q8 -11 8 -41t-8 -42q-131 -10 -143 -40q-12 -31 -15 -76t-3 -135v-410q0 -133 10.5 -217t45.5 -166q93 -215 341 -215q55 0 106.5 19.5t98.5 62.5t81.5 105.5t55.5 156t21 207.5v381q0 75 -9.5 158t-22.5 115 q-18 42 -168 54q-8 12 -7.5 42t7.5 41q184 -16 280 -16q57 0 146.5 7.5t115.5 8.5q8 -11 8 -41v-3q0 -27 -8 -39q-1 0 -12.5 -1t-19 -1.5t-22 -2t-24.5 -3.5t-24 -5t-24 -6.5t-20 -8.5t-16.5 -11.5t-9.5 -14.5q-13 -32 -22.5 -114t-9.5 -157v-434q0 -134 -33 -244 t-90 -186.5t-135 -129t-167.5 -77t-187.5 -24.5q-147 0 -271 49.5t-202 147.5q-44 55 -71.5 126.5t-40.5 162.5t-13 208v475q0 61 -1 90.5t-5 64t-12 56.5q-12 30 -144 40q-8 11 -8 39z" />
<glyph unicode="V" horiz-adv-x="1532" d="M-15 1439q0 32 8 44q153 -16 321 -16q163 0 315 16q8 -11 8 -41t-8 -42l-11 -1l-18 -1.5t-19 -2t-21 -3.5t-19.5 -5t-19 -7.5t-14.5 -10t-10.5 -13t-3.5 -16.5q0 -43 54 -168l333 -755q274 687 296 750q3 8 10.5 29.5t11.5 33t10 31t9 32t5.5 27.5t2.5 26q0 40 -179 54 q-8 12 -7.5 42t7.5 41q16 -1 48.5 -4t45.5 -4l39 -3t43 -3t41.5 -1.5t49.5 -0.5q43 0 84 3t86.5 7t80.5 6q8 -11 8 -41v-3q0 -27 -8 -39q-2 0 -16.5 -1t-23.5 -2t-25.5 -2.5t-28.5 -4.5t-25 -7t-23 -10t-15.5 -13.5t-10.5 -15.5t-11 -18t-10 -17.5t-10 -20.5t-9.5 -20.5 t-10.5 -23t-9.5 -22t-10.5 -24.5t-10 -24q-105 -257 -255.5 -612t-208.5 -495q-8 -19 -29 -41t-43 -36.5t-35 -14.5q-9 0 -14 4t-10 14t-8 14l-488 1135q-49 118 -78 184q-13 26 -46.5 44t-58.5 23t-48 7q-8 11 -8 39z" />
<glyph unicode="W" horiz-adv-x="2130" d="M-13 1437v5q1 30 9 41q152 -16 320 -16q163 0 316 16q7 -11 7.5 -41t-7.5 -42q-1 0 -12.5 -1t-17 -1.5t-18.5 -2t-21.5 -3.5t-20 -5t-19 -7.5t-14.5 -10t-10.5 -13t-3.5 -16.5q0 -11 3 -24.5t9.5 -33t11.5 -33t15.5 -40.5t14.5 -37l219 -610q245 693 298 838 q13 34 32.5 58.5t37.5 24.5q14 0 27 -36l383 -968q197 617 219 688q3 10 9.5 29.5t10.5 32.5t9 31.5t8.5 32t5.5 28t2 25.5q0 41 -175 54q-8 12 -7.5 42t7.5 41q16 -1 48.5 -4t45.5 -4l39 -3t43 -3t41.5 -1.5t49.5 -0.5q56 0 139 7t112 9q8 -12 8 -44q0 -27 -8 -39 q-2 0 -16.5 -1t-23.5 -2t-25.5 -2.5t-28.5 -4.5t-25 -7t-23 -10t-15 -13q-58 -77 -92 -186q-63 -191 -117 -352t-132 -387t-118 -345q-8 -21 -19 -41.5t-23.5 -37t-25 -26.5t-22.5 -10q-13 0 -22 8t-21 24l-369 929q-175 -516 -285 -837q-12 -34 -36.5 -79t-41.5 -45 q-9 0 -17.5 5.5t-13 10.5t-12.5 16l-403 1135q-10 31 -22.5 61.5t-33.5 76.5l-22 46q-12 26 -46 44t-59 23t-47 7q-9 12 -9 37z" />
<glyph unicode="X" horiz-adv-x="1590" d="M-20 31.5q0 30.5 9 42.5q15 0 37.5 2.5t62.5 11.5t79.5 32t64.5 57l399 544l-314 482q-7 10 -24.5 37t-27 41.5t-24 34t-25.5 32t-20 18.5q-21 15 -72.5 24.5t-79.5 9.5q-9 0 -9 37t9 46q32 -1 107.5 -5t134 -6.5t107.5 -2.5q50 0 103 2t131 6.5t89 5.5q4 -10 3.5 -46.5 t-8.5 -36.5q-33 0 -75 -12.5t-43 -34.5q0 -22 18 -49l248 -377q31 41 106 132t122.5 153.5t62.5 95.5q7 14 7 23q0 18 -25.5 34.5t-64 25.5t-76.5 9q-8 0 -9 37t7 46q137 -16 298 -16q155 0 269 16q5 -11 5 -47t-7 -36q-15 0 -35.5 -3t-59 -13t-81 -36.5t-75.5 -66.5 l-383 -454q143 -217 284 -423t166 -234q29 -35 79.5 -58.5t85 -30.5t57.5 -7q8 -17 8 -46q0 -24 -8 -37q-269 13 -359 13q-74 0 -203.5 -6t-150.5 -7q-8 8 -6 45.5t11 37.5q29 0 77 18t48 45q0 14 -6 24l-298 451q-4 -5 -38.5 -50.5t-68.5 -90.5t-75 -101t-75.5 -105 t-52.5 -79q-17 -29 -17 -38t4 -17t11.5 -14.5t17.5 -12t22 -9.5t25.5 -7.5t27 -6t27.5 -4.5t26.5 -2.5t23.5 -0.5q9 -12 10.5 -38.5t-3.5 -44.5q-222 13 -295 13q-52 0 -100.5 -2t-104 -6t-82.5 -5q-9 10 -9 40.5z" />
<glyph unicode="Y" horiz-adv-x="1397" d="M-1 1439q0 32 8 44q153 -16 320 -16q163 0 316 16q7 -11 7.5 -41t-7.5 -42q-1 0 -12 -1t-17 -1.5t-19 -2t-21 -3.5l-20 -5t-19 -7.5t-14.5 -10t-11 -13t-3.5 -16.5t16 -36l269 -495h1q10 0 94 147q88 155 187 339q11 22 11 51q0 41 -166 54q-8 12 -7.5 42t7.5 41 q22 -2 67.5 -6t63 -5.5t52 -3t71.5 -1.5q56 0 138.5 7t111.5 9q7 -11 8 -41v-3q0 -28 -8 -39l-13.5 -1t-20 -1.5t-22 -2.5t-25.5 -4.5t-24.5 -7t-24.5 -9.5t-19.5 -13t-15.5 -17q-45 -65 -205 -326.5t-203 -349.5q-13 -32 -13 -43v-300q0 -61 0.5 -90.5t4.5 -64.5t12 -56 q12 -30 144 -40q8 -12 7.5 -42t-7.5 -41q-153 16 -321 16q-162 0 -315 -16q-7 11 -7.5 41t7.5 42q131 10 143 40q12 31 15 76t3 135v311q0 23 -11 45q-25 55 -95.5 185.5t-128.5 233.5l-59 103q-37 70 -69 123q-15 26 -48.5 43.5t-58.5 23t-45 7.5q-8 11 -8 39z" />
<glyph unicode="Z" horiz-adv-x="1433" d="M44 46q0 2 1 3l887 1317h-410q-35 0 -66 -5t-55 -13t-46 -23t-37 -27t-30 -34.5t-24 -37t-20.5 -41.5t-17 -42t-15.5 -44q-9 -25 -14 -37q-4 -14 -29 -14q-54 0 -65 12q8 43 25.5 127.5t31.5 158t24 137.5q23 -6 137.5 -11t155.5 -5l314 2q247 3 519 23q7 -2 15 -29.5 t8 -44.5q-2 -8 -220 -336t-435 -653l-217 -324h484q135 0 213 79q19 18 33.5 36.5t29 41.5t28.5 52t28 67q3 13 31 13q18 0 40 -4t27 -9q-13 -45 -40.5 -124t-49.5 -146t-31 -109l-1151 -2q-13 0 -29 10.5t-24 22.5q-6 8 -6 13z" />
<glyph unicode="[" horiz-adv-x="692" d="M168 -222v1895q0 20 11 35t32 17q274 0 459 36q4 0 8.5 -5.5t4.5 -15.5q0 -19 -8.5 -37t-13.5 -21q-30 -15 -76.5 -26.5t-104.5 -21t-72 -12.5v-1792q14 -3 72 -13t104.5 -21.5t76.5 -26.5q5 -2 13.5 -20.5t8.5 -37.5q0 -9 -4.5 -14.5t-8.5 -5.5q-185 36 -459 36 q-21 1 -32 16t-11 35z" />
<glyph unicode="\" horiz-adv-x="938" d="M60 1691q11 14 43 14q72 0 85 -36l631 -1585q55 -139 55 -142q-2 -8 -21.5 -15.5t-41.5 -7.5q-18 0 -38 10t-29 31q-133 333 -358 905t-326 826z" />
<glyph unicode="]" horiz-adv-x="692" d="M9 -289q0 19 8.5 37.5t13.5 20.5q30 15 77 26.5t104.5 21.5t71.5 13v1792q-14 3 -71.5 12.5t-104.5 21t-77 26.5q-5 3 -13.5 21t-8.5 37q0 10 4.5 15.5t8.5 5.5q185 -36 460 -36q20 -2 31 -17t11 -35v-1895q0 -20 -11 -35t-31 -16q-275 0 -460 -36q-2 0 -5 2t-5.5 7 t-2.5 11z" />
<glyph unicode="^" horiz-adv-x="875" d="M85 979q35 54 64 101t58.5 97t49 83.5t57 100t60.5 106.5q8 15 20 23.5t23 8.5q10 0 23 -8.5t21 -23.5q34 -59 91.5 -161.5t98 -172t95.5 -154.5q0 -17 -14 -28.5t-29 -11.5q-57 53 -129 130t-115 127l-42 49q-157 -186 -287 -306q-15 0 -30 11.5t-15 28.5z" />
<glyph unicode="_" horiz-adv-x="1104" d="M18 -74q11 103 34 103h1005q9 0 9 -11q0 -19 -22 -101q-2 -6 -5.5 -9.5t-5.5 -3.5h-3h-996q-2 0 -4.5 0.5t-7 6t-4.5 15.5z" />
<glyph unicode="`" horiz-adv-x="557" d="M99 1474q0 20 25.5 42.5t77.5 22.5q23 0 45 -6t31 -14q38 -44 89 -118.5t85 -129.5t34 -61q0 -11 -13.5 -26t-24.5 -15q-7 0 -44.5 23t-88.5 59.5t-100 77t-82.5 80.5t-33.5 65z" />
<glyph unicode="a" horiz-adv-x="1057" d="M69 255q0 63 35.5 114t81.5 66q37 11 113 40t168.5 65t132.5 51v47v59q0 87 -37.5 155.5t-94.5 68.5q-12 0 -23.5 -2.5t-20.5 -8t-17 -11.5t-15 -16t-12.5 -18.5t-10.5 -22t-9 -24.5t-8 -27.5t-7 -28.5t-7 -30q-9 -43 -39.5 -70.5t-85.5 -27.5q-47 0 -82 31t-35 76 q0 37 32 92q14 15 52.5 40.5t96.5 56.5t134 53.5t145 22.5q92 0 168.5 -43.5t122 -122t45.5 -177.5v-419q0 -29 7 -50t19 -31.5t27 -10.5q11 0 22.5 3.5t18 6.5t15.5 8l9 5q7 -3 11.5 -15.5t4.5 -22.5q0 -19 -9 -34q-23 -22 -53 -44.5t-82.5 -47t-95.5 -24.5 q-53 0 -103.5 34.5t-66.5 77.5q-28 -25 -114.5 -71t-138.5 -46q-62 0 -117.5 24t-93.5 63t-60.5 88t-22.5 98zM372 278q1 -35 14 -62.5t33.5 -43.5t43.5 -24.5t45 -8.5q38 0 65 17t27 30v314q-7 -4 -64 -29.5t-84 -42.5q-42 -28 -62 -68q-18 -37 -18 -74v-8z" />
<glyph unicode="b" horiz-adv-x="1214" d="M-5 1433q0 7 1 15q2 18 6 21q70 7 140 18t120 23t89 22.5t61 17.5t23 7q9 -2 20 -15.5t13 -22.5q-24 -101 -24 -227v-362v-11t1 -12t4 -8t8 1q23 19 55.5 40.5t82 43.5t84.5 22q64 0 124.5 -16.5t111.5 -46t94 -73t73 -95.5t46.5 -115.5t16.5 -130.5q0 -105 -34.5 -194.5 t-93 -153.5t-136 -109.5t-163 -67.5t-174.5 -22q-50 0 -108 13t-104.5 26t-69.5 13q-46 0 -83 -16q-6 0 -30 22.5t-24 33.5q27 69 27 266v910q0 69 -15 107q-4 8 -16.5 15t-28.5 11.5t-34 8t-32.5 5t-23.5 1.5q-4 0 -6 16q-1 9 -1 19zM444 220q0 -60 39.5 -99.5t108 -39.5 t122.5 55.5t81 136.5t27 166q0 90 -13.5 159.5t-36.5 114.5t-56 74t-69.5 41t-79.5 12q-72 0 -117 -49q-6 -7 -6 -20v-551z" />
<glyph unicode="c" horiz-adv-x="1001" d="M69 448q0 81 31 162.5t86.5 151.5t127.5 124.5t161 86t179 31.5q83 0 143 -13t83 -28q14 -15 21.5 -25t15.5 -32.5t8 -49.5q0 -34 -15 -65t-45.5 -52.5t-69.5 -21.5q-17 0 -33 5.5t-31 19t-24 22.5t-25 28.5t-21 25.5q-29 32 -70 50.5t-83 18.5q-46 0 -83 -49.5t-55 -119 t-18 -140.5q0 -91 20 -163t52 -117.5t75 -75.5t86.5 -42t88.5 -12q149 0 251 112q11 -3 19 -16t8 -24q0 -33 -7 -43q-13 -21 -36.5 -46.5t-62.5 -56.5t-83 -56t-103.5 -41.5t-119.5 -16.5q-95 0 -180 32.5t-149.5 91t-103 148t-38.5 196.5z" />
<glyph unicode="d" horiz-adv-x="1225" d="M72 448q0 79 21.5 150.5t58.5 125.5t86.5 100.5t103.5 78t111 53.5t109 32.5t97 10.5q53 0 89 -4q11 0 11 51v204q0 27 -0.5 39.5t-4 31t-10.5 36.5q-4 10 -22 18t-40 12.5t-41.5 7.5t-31.5 3q-4 0 -6 16t-0.5 33.5t6.5 21.5q70 7 140 18t120 23t89 22.5t61 17.5t23 7 q9 -2 20 -15.5t13 -22.5q-24 -101 -24 -227v-1050v-25.5t2 -21t6 -21.5t12 -17q20 -23 101 -23q6 -6 6 -28.5t-13 -42.5q-57 -6 -147.5 -26t-159 -36.5t-78.5 -16.5q-4 0 -7.5 4t-6.5 10.5t-5 17t-2 22.5v36v4.5t-0.5 4.5t-2 3t-3.5 -1q-20 -14 -43 -27.5t-62 -32.5t-84 -31 t-87 -12q-80 0 -154 36t-129.5 97.5t-88.5 148.5t-33 184zM390 544q0 -122 27 -217t79 -148.5t120 -53.5q45 0 94 30t49 53v576q0 12 -9 26t-25.5 27t-37.5 24t-48 17.5t-54 6.5q-52 0 -91 -27.5t-61 -76t-32.5 -108t-10.5 -129.5z" />
<glyph unicode="e" horiz-adv-x="1030" d="M72 448q0 104 41.5 205.5t109.5 177.5t160 123t186 47q84 0 153 -22.5t112 -58.5t73 -82t42 -90t12 -85q0 -37 -17.5 -64.5t-43.5 -29.5q-201 -18 -537 -27q0 -89 23.5 -158.5t57.5 -109t79 -64.5t82 -33.5t71 -8.5q149 0 251 112q11 -3 19 -16t8 -24q0 -33 -6 -43 q-14 -21 -37.5 -46.5t-62 -56.5t-83 -56t-103.5 -41.5t-120 -16.5q-75 0 -145 20t-129 60.5t-103 96t-68.5 130.5t-24.5 161zM365 632h11q29 0 121 6q117 8 157 12q29 2 29 35q0 41 -7.5 79t-22.5 71.5t-42.5 53.5t-63.5 20q-38 0 -70 -21.5t-52 -54t-34 -71.5t-20 -72 t-6 -58z" />
<glyph unicode="f" horiz-adv-x="795" d="M52 883q29 40 71 76h99v33q0 89 31.5 177t83 157.5t113 124t123.5 84t112 29.5q65 0 144 -23q18 -9 30 -17t27 -21t22.5 -29.5t7.5 -35.5q0 -60 -31 -107t-83 -47q-24 0 -46.5 9.5t-35.5 19.5t-35 29.5t-31 26.5q-41 33 -90 33q-27 0 -47 -53t-20 -130q0 -121 9 -260h262 q6 0 10 -9.5t4 -19.5t-8.5 -25.5t-20.5 -29.5t-23 -22h-217v-528q0 -47 0.5 -69.5t2 -53.5t5 -51.5t10.5 -36.5q11 -30 143 -40q8 -12 7.5 -42t-7.5 -41q-153 16 -307 16t-307 -16q-7 11 -7.5 41t7.5 42q132 10 144 40q12 31 15 76t3 135v528h-159q-11 5 -11 30z" />
<glyph unicode="g" horiz-adv-x="1070" d="M54 -231q0 62 58.5 122t131.5 96q-56 14 -95 80.5t-39 138.5q0 28 57.5 76t128.5 88q-96 38 -152.5 115.5t-56.5 173.5q0 91 53.5 168t146.5 121t206 44q157 0 239 -56q7 -6 14 -6l280 26q8 -2 16.5 -8.5t8.5 -15.5q0 -8 -9.5 -32t-23 -48.5t-23.5 -31.5q-43 4 -126 13 q-13 0 -13 -6q26 -36 36.5 -72.5t10.5 -84.5q0 -92 -53 -169.5t-146.5 -123t-206.5 -45.5q-56 0 -116 11q-54 -44 -54 -70q0 -16 16 -29t40 -20t52 -7q256 0 295 -2q59 -3 110 -22.5t84.5 -47t57.5 -60.5t35 -62.5t11 -53.5q0 -80 -33 -152t-90.5 -126.5t-133.5 -95.5 t-164 -62t-179 -21q-165 0 -269.5 71.5t-104.5 185.5zM300 -130q0 -109 74.5 -171t194.5 -62q52 0 94 8.5t70 23.5t48.5 33t31.5 40t15.5 41.5t4.5 39.5q0 69 -70 107.5t-181 38.5h-246q-36 -41 -36 -99zM358 688q0 -50 9 -96.5t27 -87t50 -65.5t73 -25q91 0 109 108 q6 35 6 116q0 50 -7.5 95t-24 86.5t-47 65.5t-71.5 24q-34 0 -58 -14t-36.5 -34t-19.5 -52.5t-8.5 -58t-1.5 -62.5z" />
<glyph unicode="h" horiz-adv-x="1305" d="M28 35q0 27 8 39q132 10 143 40q12 31 15 76t3 135v925q0 69 -16 107q-7 18 -55.5 29.5t-78.5 11.5q-4 0 -6.5 16t-0.5 33.5t7 21.5q51 5 102.5 12.5t92.5 15.5t78.5 16.5t65.5 16t48.5 14t32 10t12.5 3.5q10 -2 21 -15.5t13 -22.5q-25 -139 -25 -229v-457q0 -11 3 -13 q4 0 15 11q52 59 148 113.5t168 54.5q64 0 111.5 -14t81 -45t55.5 -72t34.5 -103.5t17.5 -131.5t5 -163v-145v-56t1 -46t2.5 -44t5 -34t9.5 -31q11 -30 143 -40q8 -11 8 -39v-3q0 -30 -8 -41q-153 16 -307 16q-127 0 -280 -16q-7 11 -7.5 41t7.5 42q104 8 117 40q8 21 12 56 t5 64.5t1 90.5v177q0 65 -7.5 118t-23.5 99.5t-46.5 72.5t-73.5 26q-42 0 -89.5 -22t-77.5 -52t-30 -52v-367q0 -55 1 -84.5t5 -67.5t12 -59q12 -31 128 -40q8 -12 7.5 -42t-7.5 -41q-153 16 -291 16q-154 0 -307 -16q-8 11 -8 44z" />
<glyph unicode="i" horiz-adv-x="705" d="M57 35q0 27 8 39q132 10 143 40q12 31 15 76t3 135v257q0 21 -1 51.5t-6 74t-13 58.5q-11 22 -63 33.5t-78 11.5q-6 4 -6 36.5t8 32.5q117 10 239.5 45.5t197.5 73.5q11 -3 24.5 -17.5t13.5 -20.5q-5 -13 -13 -58.5t-9 -69.5q-3 -49 -3 -141v-367q0 -55 1 -84.5t5 -67.5 t12 -59q12 -31 128 -40q8 -11 8 -39q-1 -2 -1 -3q0 -30 -7 -41q-153 16 -291 16q-154 0 -307 -16q-8 11 -8 44zM188 1380q0 67 47 114t114 47q68 0 116 -47t48 -114t-48 -114t-116 -47q-33 0 -62.5 12.5t-51 34t-34.5 51.5t-13 63z" />
<glyph unicode="j" horiz-adv-x="640" d="M-27 -450q0 13 2 15q7 4 16 9.5t32.5 26.5t44.5 48t46 74.5t43 104t30 139t12 176.5v439q0 21 -1 51.5t-6 74t-13 58.5q-11 22 -63 33.5t-78 11.5q-6 4 -6 36.5t8 32.5q117 10 239.5 45.5t197.5 73.5q11 -3 24.5 -17.5t13.5 -20.5q-5 -13 -12.5 -58.5t-9.5 -69.5 q-2 -49 -2 -141v-423q0 -341 -108 -497q-49 -72 -126.5 -134t-145 -94t-107.5 -32q-12 7 -21.5 17.5t-9.5 20.5zM161 1380q0 69 48.5 117.5t117.5 48.5t117.5 -48.5t48.5 -117.5t-48.5 -117.5t-117.5 -48.5t-117.5 48.5t-48.5 117.5z" />
<glyph unicode="k" horiz-adv-x="1321" d="M28 35q0 27 8 39q132 10 143 40q12 31 15 76t3 135v925q0 69 -16 107q-7 18 -55.5 29.5t-78.5 11.5q-4 0 -6.5 16t-0.5 33.5t7 21.5q51 5 102.5 12.5t92.5 15.5t78.5 16.5t65.5 16t48.5 14t32 10t12.5 3.5q10 -2 21 -15.5t13 -22.5q-25 -139 -25 -229l-2 -761 q59 20 168 114q59 51 97 85.5t60.5 59.5t31 41t8.5 29q0 18 -51.5 32.5t-91.5 16.5q-6 15 -5 44t9 32q200 -9 294 -9q36 0 73.5 2t88 5t86.5 5q10 -17 7 -45.5t-13 -33.5q-37 -3 -75.5 -11.5t-78.5 -23.5t-68 -34q-21 -15 -62.5 -52.5t-111 -101.5t-122.5 -111 q92 -107 186.5 -209t131.5 -144q36 -40 69 -67.5t57 -41t52 -21t44.5 -8.5t44.5 -1q6 -11 6 -27.5t-2 -26.5t-4 -14q-18 -6 -55 -12.5t-83.5 -10t-87.5 -3.5q-95 0 -175 35.5t-132 96.5q-155 166 -265 302q-4 6 -11 13.5t-12 11.5l-6 4v-125q0 -61 1 -90.5t5 -64.5t12 -56 q12 -30 144 -40q8 -12 7.5 -42t-7.5 -41q-153 16 -307 16t-307 -16q-8 11 -8 44z" />
<glyph unicode="l" horiz-adv-x="685" d="M28 35q0 27 8 39q132 10 143 40q12 31 15 76t3 135v925q0 69 -16 107q-7 18 -55.5 29.5t-78.5 11.5q-4 0 -6.5 16t-0.5 33.5t7 21.5q51 5 102.5 12.5t92.5 15.5t78.5 16.5t65.5 16t48.5 14t32 10t12.5 3.5q10 -2 21 -15.5t13 -22.5q-25 -139 -25 -229v-965q0 -61 1 -90.5 t5 -64.5t12 -56q12 -30 144 -40q8 -11 8 -39v-3q0 -30 -8 -41q-153 16 -307 16t-307 -16q-8 11 -8 44z" />
<glyph unicode="m" horiz-adv-x="1977" d="M57 35q0 27 8 39q132 10 143 40q12 31 15 76t3 135v257q0 21 -1 51.5t-6 74t-13 58.5q-11 22 -63 33.5t-78 11.5q-6 4 -6 36.5t8 32.5q117 10 239.5 45.5t197.5 73.5q11 -3 24.5 -17.5t13.5 -20.5q-2 -6 -6.5 -27t-8 -43t-6 -39.5t-1.5 -18.5q0 -11 2 -13q4 0 16 11 q52 60 146.5 114t166.5 54q109 0 172.5 -43.5t103.5 -149.5q77 76 185 134.5t182 58.5q64 0 111.5 -14t81 -45t55.5 -72t34.5 -103.5t17.5 -131.5t5 -163v-145v-47t0.5 -40t1.5 -39t3 -31t5 -30t8 -24q11 -30 143 -40q8 -11 8 -39v-3q0 -30 -8 -41q-153 16 -307 16 q-127 0 -280 -16q-7 11 -7.5 41t7.5 42q104 8 117 40q12 31 15 76t3 135v177q0 65 -7.5 118t-23.5 99.5t-46.5 72.5t-73 26t-93 -21.5t-84 -51t-33.5 -51.5v-13q9 -125 9 -211v-145v-56t1 -46t3 -44t5.5 -34t8.5 -31q12 -30 139 -40q8 -12 7.5 -42t-7.5 -41q-153 16 -303 16 q-131 0 -284 -16q-7 11 -7.5 41t7.5 42q108 8 121 40q12 31 15 76t3 135v177q0 65 -7 118t-23.5 99.5t-47 72.5t-72.5 26q-43 0 -90 -22t-77.5 -52t-30.5 -52v-367q0 -55 1 -84.5t5 -67.5t12 -59q12 -31 128 -40q8 -12 7.5 -42t-7.5 -41q-153 16 -291 16q-154 0 -307 -16 q-8 11 -8 44z" />
<glyph unicode="n" horiz-adv-x="1335" d="M57 35q0 27 8 39q132 10 143 40q12 31 15 76t3 135v257q0 21 -1 51.5t-6 74t-13 58.5q-11 22 -63 33.5t-78 11.5q-6 4 -6 36.5t8 32.5q117 10 239.5 45.5t197.5 73.5q10 0 24 -14.5t14 -23.5l-4 -20t-6 -32.5t-6 -34.5t-4.5 -28.5t-1.5 -12.5q0 -11 2 -13q4 0 16 11 q52 60 146.5 114t166.5 54q64 0 111.5 -14t81 -45t55.5 -72t34.5 -103.5t17.5 -131.5t5 -163v-145v-56t1 -46t3 -44t5.5 -34t8.5 -31q11 -30 143 -40q8 -11 8 -39q-1 -2 -1 -3q0 -30 -7 -41q-153 16 -307 16q-127 0 -280 -16q-7 11 -7.5 41t7.5 42q104 8 117 40q12 31 15 76 t3 135v177q0 65 -7 118t-23.5 99.5t-47 72.5t-72.5 26q-43 0 -90 -22t-77.5 -52t-30.5 -52v-367q0 -55 1 -84.5t5 -67.5t12 -59q12 -31 128 -40q8 -12 7.5 -42t-7.5 -41q-153 16 -291 16q-154 0 -307 -16q-8 11 -8 44z" />
<glyph unicode="o" horiz-adv-x="1191" d="M72 486q0 104 40.5 199t110 164.5t166.5 110.5t205 41q114 0 212 -38t167 -103.5t108 -158t39 -197.5q0 -104 -40.5 -200t-109.5 -166t-166 -112t-206 -42q-114 0 -213 39t-167.5 106t-107 159.5t-38.5 197.5zM390 531q0 -61 8 -123t26 -121.5t44.5 -105.5t65.5 -74.5 t86 -28.5q40 0 70.5 16t49.5 46t32 64.5t19 80t8.5 83.5t2.5 84q0 79 -14 156.5t-41 146.5t-73.5 111.5t-104.5 42.5q-39 0 -69.5 -16t-49.5 -46t-31.5 -64.5t-18.5 -81.5t-8 -85t-2 -85z" />
<glyph unicode="p" horiz-adv-x="1238" d="M21 -445q0 28 8 40q132 10 143 40q13 30 15.5 75.5t2.5 134.5v737q0 21 -1 51.5t-6 74t-13 58.5q-11 22 -63 33.5t-78 11.5q-5 4 -5 36.5t7 32.5q117 10 239.5 45.5t197.5 73.5q11 -3 24.5 -17.5t13.5 -20.5q0 -1 -6.5 -16t-10 -29.5t-3.5 -30.5t6 -15q2 0 3 1 q53 56 118 94.5t115 38.5q99 0 182.5 -40t139 -107t86.5 -153t31 -180q0 -99 -33.5 -187.5t-89 -152t-126.5 -110t-148 -69.5t-152 -23q-27 0 -57.5 5t-50 10t-22.5 5q-4 0 -5 -6.5t-1 -29.5v-121q0 -61 0.5 -90t4.5 -64t13 -56q11 -30 143 -40q8 -13 7.5 -43t-7.5 -40 q-153 15 -307 15t-307 -15q-8 11 -8 43zM482 215q0 -64 44.5 -99t107.5 -35q23 0 50 12.5t56 41.5t52 69.5t37.5 103.5t14.5 138q0 90 -12 159.5t-39 123.5t-74.5 82.5t-113.5 28.5q-24 0 -45 -5.5t-34.5 -13.5t-24 -17t-15 -16t-4.5 -11v-562z" />
<glyph unicode="q" horiz-adv-x="1196" d="M72 430q0 74 18 142.5t51 124.5t77.5 104.5t98 84.5t112 61.5t120.5 38.5t123 13q45 0 139 -25.5t125 -25.5q14 0 25.5 1t20 3t14 3.5t12.5 4.5t9 3q11 -4 32.5 -24.5t21.5 -31.5q-27 -64 -27 -255v-807q0 -61 0.5 -90t4.5 -64t13 -56q11 -30 143 -40q8 -12 8 -40 q0 -32 -8 -43q-153 15 -307 15t-307 -15q-7 10 -7.5 40t7.5 43q132 10 144 40t15 75.5t3 134.5v193q0 8 -0.5 12l-1.5 12t-4 7.5t-8 -2.5q-36 -26 -111 -55.5t-144 -29.5q-111 0 -206.5 61t-150.5 164.5t-55 222.5zM390 544q0 -58 7 -114.5t24 -112.5t42 -98t65 -68t90 -26 q37 0 70 12t49 24.5t16 17.5v592q0 9 -10 26.5t-29 37t-53 34t-74 14.5q-45 0 -80.5 -20.5t-57 -53t-35.5 -78t-19 -91t-5 -96.5z" />
<glyph unicode="r" horiz-adv-x="1005" d="M57 35q0 27 8 39q132 10 143 40q12 31 15 76t3 135v257q0 21 -1 51.5t-6 74t-13 58.5q-11 22 -63 33.5t-78 11.5q-6 4 -6 36.5t8 32.5q117 10 239.5 45.5t197.5 73.5q11 -3 24.5 -17.5t13.5 -20.5q-5 -13 -13.5 -83t-8.5 -94q0 -5 2.5 -7.5t6 -2t4.5 2.5q19 34 36.5 61 t44.5 59t55 53.5t66 36t78 14.5q100 0 141 -38q8 -12 16.5 -44.5t8.5 -65.5q0 -61 -40 -119t-95 -58q-11 0 -22 3.5t-21.5 10.5t-17.5 12.5t-18.5 16t-16.5 13.5q-3 4 -13.5 13.5t-15 13.5t-13.5 10t-18.5 8.5t-19.5 2.5q-33 0 -62.5 -22t-48 -52t-29.5 -59.5t-11 -48.5 v-273q0 -55 1 -84.5t5 -67.5t12 -59q11 -28 166 -40q8 -12 7.5 -42t-7.5 -41q-153 16 -329 16q-154 0 -307 -16q-8 11 -8 44z" />
<glyph unicode="s" horiz-adv-x="904" d="M85 694q0 65 26.5 118.5t69 88t98 58.5t111.5 34.5t112 10.5q47 0 88 -6.5t95.5 -20t67.5 -16.5q6 -28 14.5 -69.5t15.5 -82.5t12 -75.5t5 -48.5q0 -3 -4 -6t-10.5 -5t-13.5 -3t-13 -1q-15 0 -42 18q-8 33 -18.5 62t-30 60.5t-44.5 53.5t-62 36t-83 14q-37 0 -65.5 -13 t-45 -41t-16.5 -67q0 -28 10.5 -52t25.5 -40t41.5 -33t46.5 -26.5t53.5 -24.5t50.5 -23q5 -3 15 -8q32 -16 48.5 -24.5t45 -26t43.5 -31.5t35 -37.5t30 -47.5t17.5 -57t7.5 -71q0 -65 -23.5 -117.5t-64.5 -88t-97.5 -59t-120 -34t-135.5 -10.5q-28 0 -58.5 3.5t-61.5 9.5 t-53 11.5t-51 13t-38 9.5q-6 34 -12 147.5t-6 143.5q0 16 33 16q13 0 29 -6.5t21 -15.5q9 -57 28.5 -100.5t44 -69.5t54.5 -43t58 -23t57 -6q56 0 91.5 36t35.5 85q0 27 -10 49.5t-25.5 38.5t-41 32t-47 26t-54 26t-52.5 27q-56 31 -93.5 57.5t-73 62.5t-53.5 81.5 t-18 100.5z" />
<glyph unicode="t" horiz-adv-x="766" d="M13 883q29 40 72 76h99v118q51 43 141.5 139t93.5 99q17 11 34 11h2q18 0 20 -11v-356h255q6 0 10 -9.5t4 -19.5t-8.5 -25.5t-20.5 -29.5t-23 -22h-217v-555q0 -89 29 -129.5t92 -40.5q34 0 69.5 20t49.5 33q15 -15 15 -31q0 -8 -7 -23.5t-11 -18.5q-12 -14 -30.5 -30 t-50.5 -39.5t-74 -39t-82 -15.5q-44 0 -84 10t-78.5 33.5t-66.5 60t-45 94t-17 129.5v542h-159q-12 5 -12 30z" />
<glyph unicode="u" horiz-adv-x="1267" d="M20 848v6q0 26 7 26q117 10 240.5 46t198.5 73q11 -3 23.5 -17.5t12.5 -20.5q-5 -13 -13 -58.5t-10 -69.5v-141v-201q0 -94 8 -158.5t27.5 -113t54 -71.5t85.5 -23q23 0 49 8.5t46.5 20.5t34 27t13.5 27v374q0 36 -5 99.5t-16.5 85t-62.5 33t-77 11.5q-5 4 -6.5 36.5 t6.5 32.5q117 10 240.5 46t198.5 73q11 -3 23.5 -17.5t12.5 -20.5q-5 -13 -13 -58.5t-9 -69.5q-1 -22 -1 -53t0.5 -59t0.5 -29v-450v-12v-12.5v-11t1 -11.5t2 -10t3 -10.5t5 -8.5t7 -9q20 -23 103 -23q4 -4 4 -29q0 -22 -13 -42q-45 -5 -111.5 -18t-120.5 -26.5t-99 -24 t-55 -10.5q-7 0 -12.5 15t-5.5 39v36q0 5 -2 9.5t-7 1.5q-18 -12 -43 -25.5t-66.5 -31t-95 -28.5t-108.5 -11q-63 0 -113 21.5t-82 58.5t-53 89t-30 109t-9 123v192q0 36 -5.5 99.5t-17 85t-62 33t-76.5 11.5q-6 5 -7 37z" />
<glyph unicode="v" horiz-adv-x="1193" d="M-8 947v5q1 28 8 40q46 -5 142.5 -10t159.5 -5q152 0 283 15q8 -8 8 -40t-8 -43q-17 0 -46.5 -6.5t-58 -21.5t-28.5 -32q0 -22 5 -34l231 -441q103 227 177 392q24 49 24 83q0 16 -15 28t-35 18t-45.5 9.5t-39.5 4t-24 0.5q-8 9 -8.5 40.5t6.5 42.5q118 -15 235 -15 q116 0 233 15q8 -10 8 -43q0 -28 -8 -40q-15 0 -36.5 -2.5t-51.5 -9.5t-56 -23t-37 -38l-345 -735q-23 -45 -40.5 -72t-32.5 -40.5t-28 -13.5q-9 0 -27 18q-41 86 -178 370t-223 461q-10 24 -31 42t-44 26.5t-40 12.5t-26 4q-8 14 -8 38z" />
<glyph unicode="w" horiz-adv-x="1767" d="M-8 947v5q1 28 8 40q136 -15 287 -15q67 0 160 5t138 10q8 -8 8 -40t-8 -43q-17 0 -46.5 -6.5t-58 -21.5t-28.5 -32q0 -22 5 -34l217 -430q148 332 148 365.5t-20 73.5q-10 19 -26 34t-33 24.5t-34.5 15.5t-29.5 8.5t-18 2.5q-11 15 -10.5 43.5t8.5 39.5q79 -10 302 -15 q152 0 282 15q9 -8 9 -40t-9 -43q-30 0 -81 -17.5t-51 -42.5q0 -22 5 -34l188 -412q80 200 152 363q25 62 25 83q0 19 -21.5 32.5t-53 19t-51.5 7t-33 1.5q-9 9 -9.5 40.5t6.5 42.5q118 -15 236 -15q95 0 212 15q8 -10 8 -43q0 -28 -8 -40q-122 0 -152 -69 q-178 -414 -329 -741q-19 -41 -42.5 -70.5t-41 -41.5t-28.5 -12q-9 0 -27 18q-175 451 -249 625q-31 -77 -86.5 -207t-95.5 -221l-40 -91q-17 -41 -40.5 -70.5t-41.5 -41.5t-30 -12q-8 0 -26 18q-28 58 -85 180t-81.5 174.5t-67.5 142.5t-81 168t-82 166q-11 24 -32.5 42 t-43.5 26.5t-39 12.5t-26 4q-8 14 -8 38z" />
<glyph unicode="x" horiz-adv-x="1249" d="M10 35q0 28 8 39q36 0 93.5 20.5t94.5 55.5q64 62 161 166t121 130q-41 54 -94.5 127.5t-99.5 134.5t-99 130q-29 37 -78.5 54t-76.5 17q-11 15 -10.5 43.5t8.5 39.5q78 -9 309 -15q152 0 282 15q9 -8 9 -40t-9 -43q-12 0 -28 -2.5t-35 -7.5t-31.5 -15.5t-12.5 -23.5 q0 -3 3 -7.5t10.5 -13t8.5 -10.5l144 -184q172 184 172 204q0 16 -15 28t-35 18t-45.5 9.5t-40 4t-23.5 0.5q-8 9 -8.5 40.5t6.5 42.5q117 -15 235 -15q43 0 103.5 3t104.5 6.5t63 5.5q7 -9 7.5 -39.5t-7.5 -43.5q-117 0 -186 -71q-88 -93 -257 -287q54 -69 153 -194.5 t165 -208.5q29 -38 77 -56t73 -18q11 -14 11 -41q-1 -1 -1 -2q0 -28 -8 -40q-77 10 -311 16q-154 0 -285 -16q-8 8 -8 40.5t8 42.5q12 0 28.5 2.5t35 7.5t31.5 15.5t13 23.5q0 3 -2.5 7t-5.5 7t-7.5 9t-7.5 9l-159 194q-16 -18 -54 -56.5t-68 -70.5t-46 -54q-18 -25 -18 -34 q0 -15 15.5 -27t35.5 -18t45 -9.5t39.5 -4.5t23.5 -1q9 -8 9.5 -39.5t-6.5 -43.5q-118 16 -236 16q-43 0 -106 -3t-111.5 -7t-66.5 -6q-8 10 -8 44z" />
<glyph unicode="y" horiz-adv-x="1196" d="M-8 947v5q1 29 8 40q46 -5 142.5 -10t159.5 -5q152 0 283 15q8 -8 8 -40t-8 -43q-17 0 -46.5 -6.5t-58 -21.5t-28.5 -32q0 -22 5 -34l231 -441q103 227 177 392q24 49 24 83q0 16 -15 28t-35 18t-45.5 9.5t-39.5 4t-24 0.5q-8 9 -8.5 40.5t6.5 42.5q118 -15 235 -15 q116 0 233 15q8 -10 8 -43q0 -28 -8 -40q-15 0 -36.5 -2.5t-51.5 -9.5t-56 -23t-37 -38q-229 -485 -370 -780q-14 -29 -37 -80t-36 -77t-33 -64t-42 -70.5t-49 -66.5q-80 -101 -153 -143.5t-131 -42.5q-68 0 -109.5 35.5t-41.5 82.5q0 70 52 106q73 0 121 6t95 24t83.5 53 t70.5 91q8 15 15 26.5t13 23.5t10 19.5t10 21t8.5 19.5t10.5 23.5t11 25.5l-372 755q-10 24 -31 42t-44 26.5t-40 12.5t-26 4q-8 13 -8 38z" />
<glyph unicode="z" horiz-adv-x="1030" d="M65 38q0 20 9 38l502 777q-162 3 -233 3q-24 0 -45 -8t-36.5 -19.5t-30.5 -31.5t-24 -36t-19 -40.5t-15 -38.5t-12 -37q-1 -6 -17.5 -11t-33.5 -5q-10 0 -18.5 3t-8.5 6q8 42 22 149.5t18 184.5q133 -13 213 -13h309q142 0 289 18q3 -5 5 -11.5t2.5 -12.5t0.5 -11 t-0.5 -11t-0.5 -8l-545 -820h256q48 0 91 23t71.5 58.5t47 73t25.5 71.5q2 8 11.5 12t17.5 4q11 0 25 -5.5t21.5 -10t9.5 -6.5q-13 -39 -35.5 -120t-38.5 -142l-15 -61h-796q-22 18 -22 38z" />
<glyph unicode="{" horiz-adv-x="667" d="M36 690q0 18 7 25q78 24 137.5 88t59.5 147q0 12 -1 25t-2.5 23.5t-4 23t-5 22t-6 22t-6 20.5t-7 21.5t-6.5 21.5q-23 81 -23 139q0 56 23 112.5t60 102t83 86.5t92.5 69t87.5 45t69 19q6 0 15 -23t0 -35q-26 -14 -54 -38t-56 -59t-46 -83t-18 -100q0 -25 1.5 -45.5 t6.5 -39t8 -29t10 -29t9 -25.5q27 -76 27 -168q0 -55 -21 -109t-53.5 -94.5t-70.5 -71.5t-73 -47t-59 -16q24 0 59 -16t73 -47.5t70.5 -71.5t53.5 -94t21 -109q0 -92 -27 -168q-2 -7 -9 -25.5t-10 -29t-8 -29t-6.5 -39t-1.5 -45.5q0 -52 18 -100t46 -83t56 -59t54 -38 q5 -7 4.5 -17t-4.5 -19t-8.5 -16t-6.5 -7q-34 3 -85.5 26t-108.5 64.5t-106.5 93t-82 118.5t-32.5 133q0 72 32 170q1 5 6 23t7 25t6 22.5t5.5 25.5t3 24.5t1.5 27.5q0 83 -59.5 147t-137.5 88q-7 7 -7 25z" />
<glyph unicode="|" horiz-adv-x="452" d="M166 -268q0 2 0.5 5.5t0.5 4.5v1954q-2 13 11 18q38 11 87 11q9 0 13.5 -3.5t4.5 -6.5v-4l2 -1953q0 -11 -47.5 -22.5t-59.5 -11.5q-5 0 -7.5 1t-3.5 3t-1 4z" />
<glyph unicode="}" horiz-adv-x="669" d="M68 -264q27 14 55 38t56 59t46 83t18 100q0 20 -1.5 39t-3 30.5t-6.5 29t-6.5 21.5t-8.5 23t-7 20q-30 71 -30 173q0 55 21.5 109t54 94t70 71.5t73 47.5t59.5 16q-24 0 -59.5 16t-73 47t-70 71.5t-54 94.5t-21.5 109q0 20 1.5 38t2.5 31t4 28t4.5 23t6 21.5t6.5 18 t7 18.5t7 17q24 62 24 141q0 52 -18 100t-46 83t-56 59t-55 38q-8 12 0.5 35t15.5 23q34 -2 85.5 -25t108.5 -64.5t106.5 -93t82 -118.5t32.5 -133q0 -63 -27 -152q-2 -7 -8 -26.5t-8.5 -27.5t-6.5 -25t-6 -29t-3.5 -27.5t-1.5 -30.5q0 -43 17.5 -82.5t46 -69t63 -51 t70.5 -32.5q7 -7 7 -25t-7 -25q-78 -24 -137.5 -88t-59.5 -147q0 -65 29 -152q32 -99 32 -166q0 -66 -32.5 -133t-82 -118.5t-106.5 -93t-108.5 -64.5t-85.5 -26q-7 0 -15.5 23.5t-0.5 35.5z" />
<glyph unicode="~" horiz-adv-x="1232" d="M108 598q0 45 40.5 96.5t106 88.5t128.5 37q37 0 73.5 -6t78.5 -21t61 -22t65 -27q4 -2 28.5 -12t32 -13t30.5 -12t34.5 -12.5t33 -9.5t37 -8.5t35 -4.5t38.5 -2q40 0 82 19.5t68 42t42 43.5q12 -4 16 -18q0 -44 -40.5 -96t-106 -89t-129.5 -37q-21 0 -43 2.5t-44.5 7.5 t-40 10t-41.5 13.5t-37 14t-37.5 15.5t-33.5 14q-10 3 -30 11.5t-31.5 13t-31.5 12t-34 12t-33.5 10t-35.5 8t-35.5 4.5t-37.5 2q-40 0 -82.5 -19.5t-68.5 -42t-42 -43.5q-12 4 -15 18z" />
<glyph unicode="&#xa1;" horiz-adv-x="553" d="M110 827q0 67 48.5 116t117.5 49q70 0 120 -50t50 -122q0 -44 -23 -82t-61.5 -60t-83.5 -22q-46 0 -85 24t-61 63t-22 84zM130 -318q0 45 35.5 339t58.5 452q8 25 17 38.5t28 19.5q9 0 25.5 -11.5t25.5 -26.5q23 -137 60 -436.5t37 -376.5q0 -69 -43 -109.5t-105 -40.5 q-56 0 -97.5 41.5t-41.5 110.5z" />
<glyph unicode="&#xa2;" horiz-adv-x="1079" d="M96 448q0 -107 38.5 -196.5t103 -148t149.5 -91t180 -32.5q60 0 119.5 16.5t103.5 41.5t83 56t62 56.5t37 46.5q7 10 7 43q0 11 -8 24t-19 16q-102 -112 -251 -112q-45 0 -88.5 12t-86.5 42t-75 75.5t-52 117.5t-20 163q0 52 10.5 106t30 99.5t50 74.5t65.5 29 q42 0 83 -18.5t70 -50.5q5 -6 21 -25.5t25 -28.5t24 -22.5t31 -19t33 -5.5q57 0 93.5 43t36.5 96q0 27 -8 49.5t-15.5 32.5t-21.5 25q-23 15 -83 28t-143 13q-113 0 -221.5 -49t-187.5 -126.5t-127.5 -178.5t-48.5 -202zM444 -65l185 1142q25 0 52 -3.5t27 -13.5l-186 -1145 q-20 0 -47 5.5t-31 14.5z" />
<glyph unicode="&#xa3;" horiz-adv-x="1070" d="M106 36q0 18 8 38.5t23 41.5t27 35.5t31 34.5t23 25q39 43 57.5 129.5t18.5 179.5q0 48 -17.5 119.5t-34.5 133.5t-17 87q0 74 21.5 147.5t57.5 134.5t85 114.5t102.5 90t110.5 57.5t109 21q53 0 86 -12t73 -38q7 -6 13.5 -30t6.5 -41q0 -59 -31.5 -95.5t-78.5 -36.5 q-42 0 -66.5 14.5t-47.5 43.5q-13 16 -21 25.5t-21 21t-26.5 17t-27.5 5.5q-33 0 -55 -20t-34 -58.5t-16.5 -84t-4.5 -108.5q0 -56 14 -114t31 -98.5t31 -90.5t14 -91q0 -59 -17 -119t-42.5 -106.5t-51 -80t-48.5 -55.5q60 34 145 34q28 0 62.5 -15t63.5 -33t69.5 -33 t80.5 -15q37 0 67 20t41.5 36.5t25.5 43.5q1 3 2 5q7 3 18 -2t18 -14q11 -13 11 -42q-8 -26 -23.5 -57t-43 -71t-60.5 -72t-79.5 -54t-95.5 -22q-42 0 -81 13.5t-71 33t-64.5 39t-74.5 33t-88 13.5q-20 0 -47 -16t-45 -32.5t-46.5 -45.5t-33.5 -33q-13 0 -24.5 16.5 t-11.5 32.5zM107 708q4 15 11 31.5t17.5 29.5t17.5 13h708q15 -13 11 -33.5t-14.5 -38t-18.5 -22.5h-731q-5 5 -1 20z" />
<glyph unicode="&#xa4;" horiz-adv-x="1261" d="M164 345l120 114q-67 106 -67 229q0 146 85 260l-116 125q-9 9 5 28t41 37.5t52 26.5l117 -123q101 69 228 69q142 0 251 -92l132 123q9 9 28 -4.5t38 -40.5t26 -53l-134 -126q65 -108 65 -230q0 -133 -74 -242l121 -130q9 -9 -5 -28t-41 -37.5t-53 -26.5l-116 123 q-107 -78 -238 -78q-144 0 -255 89l-119 -112q-8 -8 -27.5 5.5t-38 40.5t-25.5 53zM426 715q0 -101 30.5 -183.5t80.5 -128t108 -45.5q82 0 132 85.5t50 215.5q0 101 -29 184.5t-78 130.5t-106 47q-55 0 -98.5 -41.5t-66.5 -111.5t-23 -153z" />
<glyph unicode="&#xa5;" horiz-adv-x="1550" d="M61.5 1400q0.5 30 7.5 40q153 -15 321 -15q163 0 316 15q7 -10 7.5 -40t-7.5 -43q-1 0 -12.5 -0.5t-17.5 -1t-18.5 -2t-21 -3.5t-20 -5.5t-19 -7.5t-14.5 -10t-10.5 -13.5t-3.5 -16.5q0 -8 16 -36l268 -495q8 -7 96 148t187 338q11 23 11 52q0 41 -166 53q-8 13 -7.5 43 t7.5 40q21 -1 66.5 -5.5t63.5 -5.5t52 -2.5t71 -1.5q57 0 139.5 7t111.5 8q7 -10 7.5 -40t-7.5 -43l-13.5 -0.5t-20 -1.5t-22.5 -3t-25.5 -4t-24 -6.5t-24.5 -10t-20 -13t-16 -17.5q-57 -85 -212.5 -339.5t-194.5 -338.5q-12 -26 -12 -43l-2 -255q0 -47 0.5 -69.5t2 -53.5 t5.5 -51.5t10 -36.5q12 -30 144 -40q8 -12 7.5 -42t-7.5 -41q-153 16 -321 16q-163 0 -316 -16q-7 11 -7.5 41t7.5 42q132 10 144 40q12 31 15 76t3 135v266q0 19 -7 36q-13 30 -47.5 96t-74 139t-77.5 141t-63 113l-25 44q-37 70 -69 124q-16 25 -49 42.5t-58 23.5t-46 7 q-8 13 -7.5 43zM363 334q-10 10 10 52t35 42h708q15 -13 10.5 -33.5t-15 -38t-18.5 -22.5h-730zM363 513q-10 10 10 52t35 42h708q15 -13 10.5 -33.5t-15 -38t-18.5 -22.5h-730z" />
<glyph unicode="&#xa6;" horiz-adv-x="470" d="M177.5 -262.5q0.5 3.5 0.5 4.5v816q-2 13 11 18q38 11 90 11q9 0 13.5 -3.5t4.5 -6.5v-4v-815q0 -11 -47.5 -22.5t-60.5 -11.5q-4 0 -7 1t-3.5 3l-1 4t0 5.5zM177.5 870q-0.5 2 0 5.5t0.5 4.5v816q-2 13 11 18q38 11 90 11q9 0 13.5 -3.5t4.5 -6.5v-4v-815 q0 -11 -47.5 -22.5t-60.5 -11.5q-4 0 -7 1t-3.5 3z" />
<glyph unicode="&#xa7;" horiz-adv-x="1046" d="M81 844q0 51 24 113.5t61.5 119t80.5 110t81.5 90.5t65.5 56q-1 -10 0.5 -23.5t1 -24.5t-5.5 -22q-7 -18 -23 -40.5t-28 -36.5l-12 -14q-50 -60 -68.5 -99t-18.5 -108q0 -53 15.5 -105.5t37 -91.5t60 -84.5t66.5 -73.5t74 -70q15 -14 48 -43t53.5 -48t50.5 -48.5 t48.5 -54t36.5 -54.5t27 -61t9 -63q0 -67 -34 -134t-91 -120t-140 -86.5t-174 -33.5q-22 0 -55.5 10t-56.5 21q-16 28 -16 59q0 26 8.5 46.5t29.5 35t52 14.5q47 0 96 -49q25 -25 81 -25q38 0 75 12t66 40.5t29 68.5q0 29 -20.5 69.5t-48.5 76.5t-72 82t-74 75t-72 66 q-3 4 -11 11q-28 25 -41.5 38t-38 37t-37.5 38.5t-33 37.5t-31 40.5t-25.5 41.5t-22 46t-15 48t-10.5 53.5t-3 56.5zM280 1089q0 67 34 134t91 120t140 86.5t174 33.5q44 0 112 -29q16 -32 16 -68q0 -40 -21 -64.5t-67 -24.5q-19 0 -38.5 8.5t-28.5 15.5t-24 21 q-33 29 -88 29q-38 0 -75 -12t-66 -40.5t-29 -68.5q0 -30 21 -70t48.5 -76t71.5 -82.5t74 -75t72 -66.5q4 -3 11 -11l58.5 -54t52.5 -52t49.5 -56.5t38.5 -57.5t32.5 -65.5t18 -70t7.5 -81.5q0 -62 -36.5 -141.5t-88.5 -148t-103 -122t-85 -76.5q1 10 -0.5 23.5t-1 24 t5.5 21.5q7 18 23 40.5t28 35.5l12 14q48 57 67.5 99t19.5 109q0 54 -15.5 106t-37 91t-60 85t-66.5 73.5t-74 70.5q-15 14 -48 43t-53.5 47.5t-50.5 48t-48 54.5t-36.5 55t-27.5 61t-9 63z" />
<glyph unicode="&#xa8;" horiz-adv-x="911" d="M67 1151q0 64 43 107t107 43q42 0 77 -19.5t55.5 -54t20.5 -76.5q0 -63 -44.5 -107.5t-108.5 -44.5q-63 0 -106.5 44t-43.5 108zM538 1151q0 42 20 76.5t55 54t77 19.5q31 0 59.5 -11.5t48.5 -31t32 -47.5t12 -60q0 -63 -44 -107.5t-108 -44.5t-108 44.5t-44 107.5z" />
<glyph unicode="&#xa9;" horiz-adv-x="1462" d="M119 697q0 83 22 162.5t61 146.5t95.5 123.5t123.5 95.5t146.5 61t162.5 22q125 0 238.5 -48.5t196 -130t131 -195t48.5 -238t-48.5 -238t-131 -195t-196 -130t-238 -48.5t-238 48.5t-195.5 130.5t-130 195t-48 238zM220 694q0 -83 25.5 -161t73 -140.5t110 -110 t140.5 -73t161 -25.5q104 0 198.5 40.5t163 108.5t109 162.5t40.5 198.5t-40.5 199t-109 163t-163 108.5t-198.5 40.5t-198.5 -40.5t-163 -108.5t-108.5 -163t-40 -199zM412 683q0 97 47 175t123 119.5t164 41.5q27 0 60.5 -5.5t78.5 -16.5t56 -14q0 -3 5.5 -24.5t11 -44.5 t10 -44.5t4.5 -25.5q0 -1 -3.5 -3.5t-9 -4.5t-11 -3.5t-9.5 -1.5q-12 0 -14 2q-3 14 -8.5 27.5t-18.5 33t-31 33.5t-47.5 24t-66.5 10q-47 0 -83 -23t-56 -62t-30.5 -85t-10.5 -97q0 -74 20 -134.5t64.5 -99.5t106.5 -39q74 0 116 38q39 37 65 114q34 0 43 -9q0 -6 -6.5 -39 t-16 -66.5t-15.5 -35.5q-14 -4 -45 -16.5t-52.5 -20t-53.5 -14.5t-62 -7q-145 0 -235 86t-90 232z" />
<glyph unicode="&#xaa;" horiz-adv-x="866" d="M96 739q0 28 13 54.5t32.5 45t39.5 26.5q226 83 301 109v23v40q0 59 -27 101t-67 42q-19 0 -33 -6.5t-23 -16t-16.5 -27t-12 -32t-10.5 -38.5q-7 -29 -29.5 -47t-61.5 -18q-35 0 -60.5 20t-25.5 51q0 32 23 65q9 10 37.5 27.5t70.5 38.5t97.5 36t105.5 15q67 0 123 -30 t88.5 -84.5t32.5 -121.5v-280q0 -28 12 -42t29 -14q10 0 21 4.5t20 10t10 6.5q5 -2 10.5 -13.5t5.5 -18.5q0 -13 -9 -27q-28 -24 -79 -52t-96 -28q-39 0 -76 21t-49 48q-12 -8 -41 -23.5t-71.5 -31.5t-69.5 -16q-89 0 -152 56.5t-63 126.5zM316 755q1 -45 32.5 -68.5 t68.5 -23.5q22 0 43.5 13t21.5 21v197q-4 -2 -25 -9t-31 -10.5t-26 -11t-28 -14.5q-56 -34 -56 -94z" />
<glyph unicode="&#xab;" horiz-adv-x="1124" d="M58 555.5q0 17.5 16 33.5q60 36 117.5 75t102.5 72.5t84.5 65t68.5 57t50 44.5t33.5 31.5l13.5 13.5q13 -3 34 -15.5t27 -27.5q-6 -9 -61.5 -76.5t-128.5 -152t-110 -120.5q37 -37 110 -121.5t128.5 -152t61.5 -76.5q-6 -15 -27 -27.5t-34 -14.5q-1 0 -13.5 12.5 t-33.5 31.5t-50 44.5t-68.5 57t-84.5 65t-102.5 72.5t-117.5 75q-16 16 -16 33.5zM477 555.5q0 17.5 16 33.5q60 36 117.5 75t102.5 72.5t84.5 65t68.5 57t50 44.5t33.5 31.5l13.5 13.5q13 -3 34 -15.5t27 -27.5q-6 -9 -61.5 -76.5t-128.5 -152t-110 -120.5q23 -23 61.5 -66 t77.5 -88.5t75 -89t59.5 -73t26.5 -33.5q-6 -15 -27 -27.5t-34 -14.5q-1 0 -13.5 12.5t-33.5 31.5t-50 44.5t-68.5 57t-84.5 65t-102.5 72.5t-117.5 75q-16 16 -16 33.5z" />
<glyph unicode="&#xac;" horiz-adv-x="1319" d="M103 833q11 108 34 108h1028v-562q-2 -2 -23.5 -6.5t-54 -9.5t-54.5 -5q-10 0 -17.5 4t-9.5 8l-2 4v437h-888q-1 0 -2.5 0.5t-2.5 1t-2.5 2.5t-2.5 4t-2 6t-1 8z" />
<glyph unicode="&#xad;" horiz-adv-x="840" d="M125 470q0 56 34 128q466 25 540 27q8 0 12 -4t4 -16q0 -28 -10 -66.5t-24 -68.5q-46 -3 -540 -24q-9 0 -12.5 5t-3.5 19z" />
<glyph unicode="&#xae;" horiz-adv-x="1462" d="M119 811q0 83 22 162.5t61 146.5t95.5 123.5t123.5 96t146.5 61t162.5 21.5q125 0 238.5 -48t196 -130t131 -195.5t48.5 -238t-48.5 -237.5t-131 -195t-196 -130.5t-238 -48.5t-238 48.5t-195.5 130.5t-130 195t-48 238zM220 809q0 -60 13 -117.5t38.5 -107.5t60 -94.5 t79 -79.5t95 -60t108 -38.5t116.5 -13.5q104 0 198.5 40.5t163 108.5t109 163t40.5 199t-40.5 198.5t-109 163t-163 108.5t-198.5 40t-198.5 -40t-163 -108.5t-108.5 -163t-40 -198.5zM451 541.5q0 13.5 4 18.5q12 0 33.5 5.5t24.5 12.5q7 18 7 83v327q0 65 -7 83 q-5 13 -58 13q-4 5 -4 20t4 18q40 -2 134 -2q17 0 63.5 1t75.5 1q88 0 147 -44t59 -122q0 -26 -15 -52t-37.5 -44.5t-44.5 -31.5t-40 -17q14 -18 28.5 -37t28 -34.5t26 -30.5t22.5 -26.5t18 -20t12 -12.5l4 -5q29 -33 60.5 -53.5t46 -25t21.5 -4.5q2 -2 2 -8.5t-0.5 -12 t-1 -11.5l-0.5 -6q-54 -4 -101 -4q-49 0 -82 19.5t-66 60.5l-134 182q-9 13 -16 13h-13v-134q0 -65 7 -83q3 -7 24.5 -12.5t33.5 -5.5q3 -5 3 -18.5t-3 -17.5q-54 7 -130 7q-79 0 -132 -7q-4 4 -4 17.5zM652 838h36q45 0 76 30.5t31 81.5q0 36 -10.5 65t-32.5 47t-51 18 q-40 0 -45 -9q-4 -11 -4 -56v-177z" />
<glyph unicode="&#xaf;" horiz-adv-x="1050" d="M1259 1245q0 6 1 17.5t3 30t8 31.5t15 13h481q12 0 12 -15q0 -33 -14 -81q-2 -6 -6 -10t-7 -5l-3 -1h-477q-1 0 -3.5 0.5t-6 5t-3.5 14.5z" />
<glyph unicode="&#xb0;" horiz-adv-x="649" d="M76 1203q0 102 73 174t176 72q67 0 124.5 -32.5t90.5 -89.5t33 -124q0 -103 -73 -177t-175 -74t-175.5 74t-73.5 177zM181 1203q0 -40 19 -74t52 -54t73 -20q60 0 102.5 43.5t42.5 104.5q0 60 -42.5 102.5t-102.5 42.5q-40 0 -73 -19t-52 -52.5t-19 -73.5z" />
<glyph unicode="&#xb1;" horiz-adv-x="1303" d="M112 56q0 13 6.5 45t18.5 49h1032q10 0 15 -10t5 -21q0 -57 -33 -99h-1031q-13 0 -13 36zM112 721q0 7 2 22.5t8.5 37.5t14.5 34h445v446q16 13 47.5 19t46.5 6q36 0 36 -20v-451h457q10 0 15 -10t5 -21q0 -57 -33 -99h-444v-443q-9 -6 -24 -11t-30 -8t-28.5 -4.5 t-22.5 -1.5q-3 0 -6.5 1t-6 2t-5 3t-4 4t-2.5 4t-1 4v450h-457q-13 0 -13 36z" />
<glyph unicode="&#xb2;" horiz-adv-x="788" d="M85 600q61 68 95 106.5t76.5 90t95.5 119.5q57 74 81 134.5t24 125.5t-42 104t-101 39q-34 0 -65 -16t-47.5 -33.5t-31.5 -38.5l-15 -21q-6 0 -13 1.5t-15 9.5t-8 20q11 23 34.5 53t60 64t89 57t107.5 23q120 0 190 -59.5t70 -173.5q0 -43 -15.5 -86t-44.5 -82.5 t-56.5 -69.5t-65.5 -64q-114 -103 -212 -175h250q17 0 31 6.5t23 13.5t19.5 24t14.5 24.5t13.5 29.5t10.5 25t5.5 6t9.5 4t10 1q21 0 31 -6q-10 -44 -43 -154t-42 -133h-508q-8 8 -16 31z" />
<glyph unicode="&#xb3;" horiz-adv-x="757" d="M81 656q0 29 19.5 54t51.5 25q18 0 35 -10t29 -24t26 -36q16 -26 44.5 -41t56.5 -15q65 0 100.5 46.5t35.5 137.5q0 79 -46.5 139t-114.5 60q-49 0 -72 -6q-13 20 -13 33q0 18 4 27q24 3 48 9t52.5 18.5t49.5 29.5t35.5 43.5t14.5 58.5q0 57 -37 93.5t-98 36.5 q-33 0 -67.5 -17.5t-51 -32t-24.5 -24.5q-11 3 -22.5 13.5t-8.5 24.5q41 55 119 97t154 42q25 0 53 -6t57.5 -21t52.5 -36t37.5 -53.5t14.5 -71.5t-12.5 -70.5t-30.5 -50t-42 -32.5t-42 -19.5t-37 -9.5q17 0 42 -7t58 -24t61.5 -41t48 -64t19.5 -88q0 -57 -24.5 -106.5 t-64 -83.5t-91.5 -58.5t-106.5 -35.5t-107.5 -11q-43 0 -82 7t-64.5 17.5t-39.5 22.5q-20 30 -20 60z" />
<glyph unicode="&#xb4;" horiz-adv-x="528" d="M63 1210q0 6 34 61t85 129.5t89 118.5q8 8 30.5 14t45.5 6q52 0 77.5 -22.5t25.5 -42.5q0 -30 -51 -84t-115 -101.5t-119 -83.5t-64 -36q-12 0 -25 15t-13 26z" />
<glyph unicode="&#xb5;" horiz-adv-x="1167" d="M354 -392q0 54 19.5 389.5t36.5 486.5q0 27 -18 184.5t-18 182.5q0 72 7 99q7 20 22 34.5t34 14.5q22 0 99.5 -35t77.5 -55q0 -17 -1 -34.5t-3.5 -36t-4 -31t-5.5 -32.5t-5.5 -28t-6.5 -30t-6 -27q-10 -52 -25 -119t-17 -78q6 -39 17.5 -76.5t31.5 -76t52.5 -62 t73.5 -23.5q64 0 123.5 33.5t95.5 87t36 110.5q-5 40 -10.5 126t-5.5 125q0 38 -4 208q7 11 16.5 22.5t24 21.5t26.5 10q22 0 103 -35t81 -55q0 -25 -6.5 -62t-13 -63.5t-20.5 -79.5t-19 -72q-9 -37 -26.5 -98t-26.5 -97q-1 -53 7.5 -92t20.5 -59.5t29.5 -33t30.5 -16 t28 -3.5q30 0 56 12t46 34.5t30 36.5t23 36q9 0 22.5 -23.5t17.5 -39.5q2 -6 0 -22.5t-4 -22.5q-85 -253 -182 -253q-51 1 -92.5 42.5t-65.5 103t-35 136.5q-23 -82 -58.5 -145.5t-88 -104.5t-112.5 -41q-41 0 -83 31.5t-74 79.5t-55.5 105.5t-29.5 108.5q0 -8 4.5 -104.5 t10.5 -199t19.5 -235t30.5 -223.5q-11 -17 -39 -35t-55 -18q-31 0 -84 46.5t-53 69.5z" />
<glyph unicode="&#xb6;" horiz-adv-x="1184" d="M74 1051q0 89 28 161.5t72 117.5t102.5 75.5t116 42.5t115.5 12q67 0 121.5 -4t120.5 -4q31 0 62.5 0.5t57 1.5t49.5 2t42 2.5t31 2t20 1.5l7 1q9 -9 7.5 -43.5t-9.5 -39.5q-28 0 -61.5 -13t-41.5 -32q-7 -23 -7 -143v-421q5 -1 32.5 6t52.5 15l25 8q3 0 4.5 -1.5 l2.5 -2.5t1.5 -4t0.5 -5v-5.5v-4.5q-1 -8 -7 -21.5t-14 -26.5t-16.5 -23.5t-14.5 -13.5q-41 -19 -69 -22v-408q0 -64 1.5 -84.5t9.5 -43.5q10 -27 71.5 -42.5t92.5 -15.5q9 -15 9 -43.5t-5 -41.5q-5 0 -85 5.5t-141.5 8t-122.5 2.5t-124 -3t-132 -7.5t-94 -5.5q-2 4 -3.5 11 t-2 14.5t-0.5 15.5t1 15.5t1.5 13.5t1.5 9.5t2 3.5q33 0 89 16t68 42q3 7 5.5 14.5t4 17.5t2.5 17t1 20t0.5 18.5t0.5 21v19.5v383q-145 0 -252.5 45t-168.5 138t-61 225zM668 264q0 -69 1.5 -97.5t9.5 -50.5q3 -11 51 -11q47 0 50 9q3 7 5.5 15.5t3.5 19t2 18t1.5 22 t0.5 20.5v22v20v403l-125 -9v-381zM668 746q19 0 70 3.5t57 7.5v583q-11 11 -65 11q-49 0 -62 -14v-591z" />
<glyph unicode="&#xb7;" horiz-adv-x="539" d="M105 594q0 67 48.5 115t117.5 48q67 0 115.5 -48t48.5 -115q0 -69 -46.5 -120t-112.5 -51q-70 0 -120.5 51.5t-50.5 119.5z" />
<glyph unicode="&#xb8;" horiz-adv-x="1016" d="M349 -269q0 16 7 16q67 -34 108 -34q52 0 75 20t23 47q0 30 -13 52t-45 22q-19 0 -58 -15q-6 0 -17.5 12t-11.5 21q40 68 62 124h72q-18 -32 -29 -52q36 4 49 4q45 0 78.5 -32.5t33.5 -76.5q0 -82 -58.5 -135t-158.5 -53q-34 0 -64 11t-44 24q-2 4 -4 13t-3.5 18.5 t-1.5 13.5z" />
<glyph unicode="&#xb9;" horiz-adv-x="651" d="M87 1258.5q0 13.5 3 16.5q69 29 156 69.5t139.5 66t53.5 25.5h2q6 0 20 -19t16 -26q-27 -99 -27 -190v-426q0 -36 6 -74t17 -49q8 -9 32.5 -16.5t44.5 -10t28 -2.5q3 -1 2.5 -29t-2.5 -30q-215 9 -224 9q-13 0 -229 -9q-5 6 -5 32.5t5 26.5q11 0 32.5 4t45 11.5 t30.5 15.5q8 9 15 55t7 68v368q0 22 -2.5 41.5t-8 33.5t-13.5 22t-18 8q-22 0 -101 -36q-8 2 -16.5 16.5t-8.5 28z" />
<glyph unicode="&#xba;" horiz-adv-x="909" d="M78 896q0 93 49.5 171.5t135.5 125t189 46.5q109 0 196 -43.5t135 -119.5t48 -169q0 -69 -29 -132.5t-79 -110.5t-120 -74.5t-148 -27.5q-109 0 -195.5 44t-134 120.5t-47.5 169.5zM307 925q0 -40 5.5 -80t18.5 -79t32 -68.5t47 -47.5t63 -18q24 0 44 8t33.5 21t23 33 t15 40t9 46t4.5 47t1 47q0 51 -10 101.5t-29.5 95.5t-53 73t-75.5 28q-25 0 -45 -8.5t-33 -21.5t-22.5 -33.5t-15 -40.5t-8.5 -47t-3.5 -48t-0.5 -48z" />
<glyph unicode="&#xbb;" horiz-adv-x="1124" d="M101 206q6 9 61 76.5t128.5 152t110.5 121.5q-37 36 -110.5 120.5t-128.5 152t-61 76.5q6 15 26.5 27.5t33.5 15.5q1 -1 14 -13.5t33.5 -31.5t50 -44.5t69 -57t84.5 -65t102.5 -72.5t117.5 -75q15 -16 15 -33.5t-15 -33.5q-60 -36 -117.5 -75t-102.5 -72.5t-84.5 -65 t-69 -57t-50 -44.5t-33.5 -31.5t-14 -12.5q-13 2 -33.5 14.5t-26.5 27.5zM520 206q3 4 26.5 33.5t59.5 73t74.5 89t77.5 88.5t62 66q-37 36 -110.5 120.5t-128.5 152t-61 76.5q6 15 26.5 27.5t33.5 15.5q1 -1 14 -13.5t33.5 -31.5t50 -44.5t69 -57t84 -65t102.5 -72.5 t118 -75q15 -16 15 -33.5t-15 -33.5q-60 -36 -118 -75t-102.5 -72.5t-84 -65t-69 -57t-50 -44.5t-33.5 -31.5t-14 -12.5q-7 1 -19 6.5t-24.5 15.5t-16.5 20z" />
<glyph unicode="&#xbc;" horiz-adv-x="1650" d="M76 1275q44 18 96.5 42t95 44t79.5 37.5t58 27.5t23 10q33 -38 35 -45q-26 -99 -26 -190v-426q0 -36 5.5 -74t16.5 -49q8 -9 32.5 -16.5t44.5 -10t28 -2.5q3 -1 2.5 -29t-2.5 -30q-215 9 -224 9q-13 0 -228 -9q-5 6 -5 32.5t5 26.5q18 0 57.5 9.5t49.5 21.5q8 9 15.5 55 t7.5 68v368q0 46 -11.5 75.5t-31.5 29.5q-22 0 -101 -36q-7 2 -15.5 30t-6.5 31zM454 -56l773 1541q22 33 81 47q10 2 18.5 0.5t14.5 -6t7 -10.5l-773 -1541q-3 -8 -15 -18t-30.5 -19.5t-36.5 -13.5q-15 -3 -24.5 2t-11.5 11zM925 244q47 57 100 121.5t104.5 128t97.5 120 t99 122.5t89 111q15 18 30 18q3 0 10.5 -4t15 -9.5t13 -13.5t5.5 -16v-513h56q44 -40 23 -103h-79v-202q-45 -11 -105 -11q-38 0 -64 5t-26 13v195h-342q-6 2 -12 7.5t-10.5 14t-4.5 16.5zM1065 309h1h1h1h1h1h1h1h1h1h1h1h1h1h1h1h1h1h1h1h1h1h1h1h1h1h1h1h1h1h1h1h1h1h1h1 h1h1h1h1h1h1h1h1h1h1h1h1h1h1h1h1h1h1h1h1h1h1h1h1h1h1h1h1h1h1h1h1h1h1h1h1h1h1h1h1h1h1h1h1h1h1h1h1h1h1h1h1h1h1h1h1h1h1h1h1h1h1h1h1h1h2h1h1h1h1h1h1h1h1h1h1h1h2h1h1h1h1h1h1h1h1h1h2h1h1h1h1h1h1h1h1h2h1h1h1h1h1h1h2h1h1h1h1h1h1h1h2h1h1h1h1h1h1h2h1h1h1h1h1h1h2h1 h1h1h1h1h1h1h2h1h1h1h1h1h1h2h1h1h1h1h1h1h1h2h1h1h1h1h1h1h1h1h1h2h1h1h1h1h1h1h1h1h1h1h1h1h2h9v278q-28 -33 -122.5 -149t-105.5 -129h-1z" />
<glyph unicode="&#xbd;" horiz-adv-x="1675" d="M79 1275q32 13 69 29.5t70 31.5t65 30t58 27.5t46 22t31.5 15t12.5 5.5q31 -32 36 -45q-27 -99 -27 -190v-426q0 -16 1 -34t4 -36.5t7.5 -33t9.5 -19.5q12 -13 50.5 -21t54.5 -8q4 -1 3 -29t-3 -30q-215 9 -224 9q-13 0 -228 -9q-5 6 -5 32.5t5 26.5q10 0 32 4t45 11.5 t31 15.5q7 9 14.5 55t7.5 68v368q0 46 -11.5 75.5t-31.5 29.5q-22 0 -100 -36q-9 2 -17.5 25.5t-5.5 35.5zM408 -56l773 1541q22 33 81 47q14 3 26 -2t14 -14l-773 -1541q-3 -8 -15.5 -18t-30.5 -19.5t-36 -13.5q-15 -3 -24.5 2t-12.5 11zM993 27q89 98 140 158t127 158 q57 74 81 134t24 126q0 64 -42 103.5t-101 39.5q-34 0 -65 -16.5t-47.5 -34t-31.5 -38.5l-15 -21q-4 0 -9 1.5t-11.5 4.5t-11 9.5t-4.5 16.5q11 23 34.5 53t60 64t89 57t107.5 23q120 0 190 -60t70 -173q0 -43 -15.5 -86t-44.5 -82.5t-56.5 -69.5t-65.5 -65 q-114 -102 -213 -174h251q16 0 30.5 6.5t23.5 13.5t19.5 24t14.5 24t13.5 29t10.5 26q2 4 10 7.5t15 3.5q21 0 31 -7q-10 -44 -43 -153.5t-42 -132.5h-508q-8 7 -16 31z" />
<glyph unicode="&#xbe;" horiz-adv-x="1657" d="M76 656q0 29 19.5 54t52.5 25q26 0 47 -18.5t42 -51.5q6 -9 13 -16.5t15.5 -13.5t17.5 -11t18 -8t18.5 -5t18.5 -2q65 0 101 46.5t36 137.5q0 79 -47 139t-114 60q-50 0 -72 -6q-14 20 -14 33q0 18 5 27q24 3 48 9t52 18.5t49.5 29.5t35.5 43.5t14 58.5q0 57 -36.5 93.5 t-97.5 36.5q-33 0 -68 -17.5t-51 -32t-24 -24.5q-11 3 -23 13.5t-9 24.5q42 55 119.5 97t153.5 42q26 0 54 -6t57 -21t52 -36t38 -53.5t15 -71.5q0 -28 -7 -52.5t-17.5 -42t-25 -31.5t-29 -23t-31.5 -16t-29.5 -10.5t-24.5 -6.5q13 0 32.5 -5.5t46.5 -15.5t52.5 -28.5 t47.5 -41.5t35.5 -58t13.5 -75q0 -48 -17 -90.5t-46 -74.5t-68 -57t-83 -41t-89.5 -24t-90.5 -8q-42 0 -81 7t-64.5 17.5t-40.5 22.5q-20 30 -20 60zM482 -56l772 1541q23 33 81 47q10 2 19 0.5t14.5 -6t6.5 -10.5l-772 -1541q-6 -12 -31 -28.5t-52 -22.5q-15 -3 -24.5 2 t-11.5 11zM930 244q47 57 100 121.5t104.5 128t97 120t99 122.5t89.5 111q14 18 29 18q9 0 27 -14t18 -29v-513h56q43 -40 22 -103h-78v-202q-45 -11 -105 -11q-38 0 -64 5t-26 13v195h-343q-5 2 -11 7.5t-10.5 14t-4.5 16.5zM1070 309h1h1h1h1h1h1h1h1h1h1h1h1h1h1h1h1h1h1 h1h1h1h1h1h1h1h1h1h1h1h1h1h1h1h1h1h1h1h1h1h1h1h1h1h1h1h1h1h1h1h1h1h1h1h1h1h1h1h1h1h1h1h1h1h1h1h1h1h1h1h1h1h1h1h1h1h1h1h1h1h1h1h1h1h1h2h1h1h1h1h1h1h1h1h1h1h1h1h1h1h1h1h1h1h2h1h1h1h1h1h1h1h1h1h1h2h1h1h1h1h1h1h1h1h2h1h1h1h1h1h1h1h1h2h1h1h1h1h1h1h1h2h1h1h1h1 h1h1h2h1h1h1h1h1h1h2h1h1h1h1h1h1h2h1h1h1h1h1h1h1h2h1h1h1h1h1h1h2h1h1h1h1h1h1h1h1h2h1h1h1h1h1h1h1h1h1h2h1h1h1h1h1h1h1h1h1h1h10v278q-28 -33 -122.5 -149t-105.5 -129h-1z" />
<glyph unicode="&#xbf;" horiz-adv-x="869" d="M72 -85q0 32 5 61t17 54t24 45.5t33 41t36 34.5t41.5 32t41.5 27.5t43.5 27t40.5 24.5q13 8 38 22.5t42.5 25.5t38.5 25.5t37.5 30t27.5 30.5q4 7 6.5 16.5t3.5 21t1.5 20t0 21t-0.5 16.5q4 11 15 25.5t18 14.5q9 0 20 -5t19 -11t13 -11q6 -15 13.5 -38t14.5 -53 t12 -65.5t5 -67.5q0 -37 -11.5 -71.5t-27.5 -59t-43 -49.5t-47 -40t-50 -35q-238 -157 -238 -247q0 -25 13 -48.5t41.5 -41t66.5 -17.5q22 0 47 14t48 34.5t46.5 41t51.5 35t53 14.5q62 0 100.5 -45t38.5 -103q0 -28 -10.5 -60.5t-22.5 -42.5q-67 -38 -202 -38 q-24 0 -57.5 5t-78 18.5t-88.5 33t-87.5 51.5t-76.5 71.5t-53 95t-20 119.5zM410 822q0 70 46.5 121.5t112.5 51.5q65 0 117.5 -50t52.5 -123q0 -69 -48 -116t-113 -47q-46 0 -85 21.5t-61 59t-22 82.5z" />
<glyph unicode="&#xc0;" horiz-adv-x="1512" d="M-27 25.5q-2 27.5 4 46.5q25 0 83.5 23.5t73.5 47.5q38 63 79 157l477 1098q11 25 38.5 55t44.5 30q14 0 28.5 -5t18.5 -11l459 -1135q15 -37 34 -88.5t29 -73.5q13 -32 39.5 -53.5t57 -29.5t48.5 -10.5t31 -2.5q9 -15 10.5 -45.5t-5.5 -37.5q-20 1 -131 9.5t-169 8.5 q-46 0 -109 -3.5t-136 -8.5t-93 -6q-9 8 -9 45.5t9 37.5q32 0 71 11t61 29q20 17 20 38q0 9 -33.5 94.5t-67.5 165.5l-34 81q-8 9 -15 9q-43 2 -215 2q-155 0 -233 -2q-10 0 -16 -11q-56 -126 -81 -189q-17 -43 -33 -92t-16 -60q0 -20 24 -36t56.5 -24t57.5 -12t35 -4 q9 -13 8.5 -44t-6.5 -39q-157 18 -242 18q-25 0 -50 -1t-40 -1.5t-42.5 -3t-35 -3.5t-40 -5t-36.5 -4q-7 7 -9 34.5zM425 1861q0 23 14 40t34.5 26.5t40.5 14.5t37 5q22 0 40 -9q73 -56 171 -153t98 -109t-10.5 -28.5t-20.5 -16.5t-54 15.5t-102.5 42t-114 56t-94.5 61.5 t-39 55zM472 627q0 -9 5 -9q67 -6 186 -6q110 0 179 4q2 0 3.5 3l2.5 5l1 3l-186 439z" />
<glyph unicode="&#xc1;" horiz-adv-x="1512" d="M-27 25.5q-2 27.5 4 46.5q25 0 83.5 23.5t73.5 47.5q38 63 79 157l477 1098q11 25 38.5 55t44.5 30q14 0 28.5 -5t18.5 -11l459 -1135q15 -37 34 -88.5t29 -73.5q13 -32 39.5 -53.5t57 -29.5t48.5 -10.5t31 -2.5q9 -15 10.5 -45.5t-5.5 -37.5q-20 1 -131 9.5t-169 8.5 q-46 0 -109 -3.5t-136 -8.5t-93 -6q-9 8 -9 45.5t9 37.5q32 0 71 11t61 29q20 17 20 38q0 9 -33.5 94.5t-67.5 165.5l-34 81q-8 9 -15 9q-43 2 -215 2q-155 0 -233 -2q-10 0 -16 -11q-56 -126 -81 -189q-17 -43 -33 -92t-16 -60q0 -20 24 -36t56.5 -24t57.5 -12t35 -4 q9 -13 8.5 -44t-6.5 -39q-157 18 -242 18q-25 0 -50 -1t-40 -1.5t-42.5 -3t-35 -3.5t-40 -5t-36.5 -4q-7 7 -9 34.5zM472 627q0 -9 5 -9q67 -6 186 -6q110 0 179 4q2 0 3.5 3l2.5 5l1 3l-186 439zM649 1676q0 12 98 109t171 153q18 9 40 9q24 0 51 -8t51 -28.5t24 -49 t-58.5 -70.5t-131.5 -76.5t-136.5 -59t-76.5 -24.5q-11 0 -21.5 16.5t-10.5 28.5z" />
<glyph unicode="&#xc2;" horiz-adv-x="1512" d="M-27 25.5q-2 27.5 4 46.5q25 0 83.5 23.5t73.5 47.5q38 63 79 157l477 1098q11 25 38.5 55t44.5 30q14 0 28.5 -5t18.5 -11l459 -1135q15 -37 34 -88.5t29 -73.5q13 -32 39.5 -53.5t57 -29.5t48.5 -10.5t31 -2.5q9 -15 10.5 -45.5t-5.5 -37.5q-20 1 -131 9.5t-169 8.5 q-46 0 -109 -3.5t-136 -8.5t-93 -6q-9 8 -9 45.5t9 37.5q32 0 71 11t61 29q20 17 20 38q0 9 -33.5 94.5t-67.5 165.5l-34 81q-8 9 -15 9q-43 2 -215 2q-155 0 -233 -2q-10 0 -16 -11q-56 -126 -81 -189q-17 -43 -33 -92t-16 -60q0 -20 24 -36t56.5 -24t57.5 -12t35 -4 q9 -13 8.5 -44t-6.5 -39q-157 18 -242 18q-25 0 -50 -1t-40 -1.5t-42.5 -3t-35 -3.5t-40 -5t-36.5 -4q-7 7 -9 34.5zM472 627q0 -9 5 -9q67 -6 186 -6q110 0 179 4q2 0 3.5 3l2.5 5l1 3l-186 439zM490 1673q25 19 162 146q15 14 29.5 28.5t25 26t18.5 20.5t16 18.5t11 13.5 q19 23 30 23q5 0 13 -7t16 -16q53 -58 94 -98q125 -123 168 -155q0 -13 -6.5 -23.5t-16.5 -14.5q-22 6 -121 54.5t-147 80.5q-50 -33 -146.5 -80.5t-122.5 -54.5q-5 3 -10 8t-9 13.5t-4 16.5z" />
<glyph unicode="&#xc3;" horiz-adv-x="1512" d="M-27 25.5q-2 27.5 4 46.5q25 0 83.5 23.5t73.5 47.5q38 63 79 157l477 1098q11 25 38.5 55t44.5 30q14 0 28.5 -5t18.5 -11l459 -1135q15 -37 34 -88.5t29 -73.5q13 -32 39.5 -53.5t57 -29.5t48.5 -10.5t31 -2.5q9 -15 10.5 -45.5t-5.5 -37.5q-20 1 -131 9.5t-169 8.5 q-46 0 -109 -3.5t-136 -8.5t-93 -6q-9 8 -9 45.5t9 37.5q32 0 71 11t61 29q20 17 20 38q0 9 -33.5 94.5t-67.5 165.5l-34 81q-8 9 -15 9q-43 2 -215 2q-155 0 -233 -2q-10 0 -16 -11q-56 -126 -81 -189q-17 -43 -33 -92t-16 -60q0 -20 24 -36t56.5 -24t57.5 -12t35 -4 q9 -13 8.5 -44t-6.5 -39q-157 18 -242 18q-25 0 -50 -1t-40 -1.5t-42.5 -3t-35 -3.5t-40 -5t-36.5 -4q-7 7 -9 34.5zM367 1698q0 51 43 107q86 108 208 108q39 0 77.5 -10.5t62 -21.5t62.5 -33q130 -72 186 -72q41 0 77.5 16.5t56.5 36.5t37.5 39.5t22.5 22.5q8 0 13 -11 t5 -21q0 -51 -42 -107q-89 -110 -209 -110q-29 0 -56 5t-54 15.5t-44.5 19.5t-46.5 25q-7 4 -24 13.5t-24.5 13.5l-22.5 12t-24 11.5t-22.5 9t-23.5 8t-22 4.5t-23 2q-42 0 -78.5 -17t-56 -37t-37 -40t-23.5 -23q-5 0 -9.5 6.5t-6.5 14t-2 13.5zM472 627q0 -9 5 -9 q67 -6 186 -6q110 0 179 4q2 0 3.5 3l2.5 5l1 3l-186 439z" />
<glyph unicode="&#xc4;" horiz-adv-x="1512" d="M-27 25.5q-2 27.5 4 46.5q25 0 83.5 23.5t73.5 47.5q38 63 79 157l477 1098q11 25 38.5 55t44.5 30q14 0 28.5 -5t18.5 -11l459 -1135q15 -37 34 -88.5t29 -73.5q13 -32 39.5 -53.5t57 -29.5t48.5 -10.5t31 -2.5q9 -15 10.5 -45.5t-5.5 -37.5q-20 1 -131 9.5t-169 8.5 q-46 0 -109 -3.5t-136 -8.5t-93 -6q-9 8 -9 45.5t9 37.5q32 0 71 11t61 29q20 17 20 38q0 9 -33.5 94.5t-67.5 165.5l-34 81q-8 9 -15 9q-43 2 -215 2q-155 0 -233 -2q-10 0 -16 -11q-56 -126 -81 -189q-17 -43 -33 -92t-16 -60q0 -20 24 -36t56.5 -24t57.5 -12t35 -4 q9 -13 8.5 -44t-6.5 -39q-157 18 -242 18q-25 0 -50 -1t-40 -1.5t-42.5 -3t-35 -3.5t-40 -5t-36.5 -4q-7 7 -9 34.5zM374 1785q0 64 43 107t107 43q31 0 59.5 -11.5t48.5 -31.5t32 -47.5t12 -59.5q0 -64 -44 -108t-108 -44t-107 44t-43 108zM472 627q0 -9 5 -9q67 -6 186 -6 q110 0 179 4q2 0 3.5 3l2.5 5l1 3l-186 439zM878 1785q0 64 44 107t108 43q42 0 77 -19.5t55 -54t20 -76.5q0 -64 -44 -108t-108 -44t-108 44t-44 108z" />
<glyph unicode="&#xc5;" horiz-adv-x="1512" d="M-27 25.5q-2 27.5 4 46.5q25 0 83.5 23.5t73.5 47.5q38 63 79 157l477 1098q11 25 38.5 55t44.5 30q14 0 28.5 -5t18.5 -11l459 -1135q15 -37 34 -88.5t29 -73.5q13 -32 39.5 -53.5t57 -29.5t48.5 -10.5t31 -2.5q9 -15 10.5 -45.5t-5.5 -37.5q-20 1 -131 9.5t-169 8.5 q-46 0 -109 -3.5t-136 -8.5t-93 -6q-9 8 -9 45.5t9 37.5q32 0 71 11t61 29q20 17 20 38q0 9 -33.5 94.5t-67.5 165.5l-34 81q-8 9 -15 9q-43 2 -215 2q-155 0 -233 -2q-10 0 -16 -11q-56 -126 -81 -189q-17 -43 -33 -92t-16 -60q0 -20 24 -36t56.5 -24t57.5 -12t35 -4 q9 -13 8.5 -44t-6.5 -39q-157 18 -242 18q-25 0 -50 -1t-40 -1.5t-42.5 -3t-35 -3.5t-40 -5t-36.5 -4q-7 7 -9 34.5zM472 627q0 -9 5 -9q67 -6 186 -6q110 0 179 4q2 0 3.5 3l2.5 5l1 3l-186 439zM562 1700q0 91 65.5 155.5t156.5 64.5q59 0 109.5 -29.5t80 -80t29.5 -110.5 q0 -91 -64.5 -156.5t-154.5 -65.5q-91 0 -156.5 65.5t-65.5 156.5zM665 1700.5q0 -50.5 34.5 -86t84.5 -35.5q33 0 60 16t42.5 44t15.5 61q0 51 -34 86t-84 35t-84.5 -35t-34.5 -85.5z" />
<glyph unicode="&#xc6;" horiz-adv-x="2018" d="M-50.5 25.5q-0.5 26.5 8.5 46.5q26 0 91 23.5t84 47.5q56 68 110 157l658 1053q0 4 -2 7q-3 6 -11 11.5t-19.5 9t-23 6t-26.5 4t-24.5 2.5t-23 1.5t-15.5 1.5q-8 12 -7.5 42t7.5 40q101 -6 320 -6q32 0 135.5 2t213.5 4.5t223.5 5.5t155.5 3q6 -39 14.5 -86t16 -83 t18 -84.5t16.5 -77.5q-5 -5 -21.5 -8t-29.5 -3q-29 0 -36 18q-20 52 -39.5 88t-47.5 70t-67 51t-88 17h-186q-48 0 -76 -5t-36 -22q-11 -27 -11 -137v-401q0 -6 13.5 -12t36 -9t46.5 -3h119q51 0 81.5 5.5t53 24.5t35.5 47t27 79q4 18 27 18q31 0 42 -11v-430q-9 -9 -40 -9 q-28 0 -31 18q-13 50 -28.5 81t-26 40.5t-24.5 15.5q-37 15 -170 15q-161 0 -161 -31v-347q0 -132 18 -177q9 -22 52.5 -33.5t92.5 -11.5h148q135 0 208 74q66 65 121 213q4 13 32 13q17 0 39.5 -4t27.5 -9q-5 -14 -26.5 -74.5t-31 -88.5t-25.5 -76t-25 -83t-13 -63h-762 q-72 0 -147.5 -1t-125 -1.5t-58.5 -0.5q-7 11 -7.5 41t7.5 42q133 10 143 38q12 31 15 76t3 135v179h-177q-141 0 -219 -2q-5 0 -10.5 -4t-7.5 -7q-88 -133 -123 -195q-27 -45 -51 -91t-26 -57q-3 -20 15.5 -36t46.5 -23.5t50 -11t32 -3.5q8 -12 8.5 -44.5t-6.5 -38.5 q-152 18 -249 18q-29 0 -54 -1t-55 -3.5t-41 -3t-49.5 -5t-44.5 -5.5q-6 8 -6.5 34.5zM579 627q-2 -9 2 -9q67 -6 170 -6q106 0 166 4v549z" />
<glyph unicode="&#xc7;" horiz-adv-x="1509" d="M92 721q0 159 61.5 302.5t166 246.5t247.5 163.5t300 60.5q113 0 241 -11.5t225 -30.5q0 -1 38 -162t38 -177q0 -10 -19.5 -21.5t-38.5 -11.5q-23 0 -32 9q-4 18 -11.5 38t-20.5 46.5t-31.5 51.5t-42.5 51t-56.5 47t-71.5 38.5t-90 27t-108 9.5q-77 0 -142 -23.5 t-112 -65.5t-82.5 -98t-57.5 -125t-32.5 -143t-10.5 -155q0 -76 9 -149t28 -143.5t46.5 -131.5t67 -113t88 -89.5t110.5 -58t133 -20.5q174 0 278 96q42 38 80.5 106t55 110.5t20.5 61.5q48 0 79 -27q0 -32 -35 -182t-57 -158q-74 -27 -111.5 -39.5t-105.5 -31.5t-134 -27 t-140 -8q-156 0 -297.5 56.5t-245.5 153t-165.5 234.5t-61.5 293zM706 -287q0 18 6 18l6.5 -3t11.5 -6t14.5 -7t18.5 -7t19.5 -6t22 -5t22.5 -2q38 0 63 11.5t34.5 27t9.5 33.5q0 20 -4.5 36t-19.5 29t-39 13q-19 0 -62 -15q-6 0 -19 13t-13 23q44 70 67 132h77 q-21 -34 -32 -56q41 4 54 4q24 0 46.5 -9.5t38.5 -25t26 -37t10 -44.5q0 -87 -63.5 -144.5t-169.5 -57.5q-38 0 -69.5 11.5t-46.5 26.5q-3 5 -6 22t-3 25z" />
<glyph unicode="&#xc8;" horiz-adv-x="1348" d="M77.5 34q-0.5 30 7.5 42q133 10 143 38q13 31 15.5 76t2.5 135v824q0 61 -0.5 90.5t-4.5 64t-13 56.5q-1 4 -6 8.5t-13 7.5t-16 5.5t-19.5 4.5t-20 3.5t-21 2.5t-19 1.5t-16.5 1t-12 1.5q-8 12 -7.5 42t7.5 40q101 -6 320 -6q55 0 371 7.5t357 7.5q7 -50 18 -106 t26.5 -126t20.5 -99q-3 -3 -12.5 -6t-20 -4t-18.5 -1q-29 0 -36 18q-20 52 -39 88t-47.5 70t-67.5 51t-88 17h-186q-23 0 -38.5 -1t-32 -3.5t-27 -8t-14.5 -14.5q-11 -27 -11 -137v-401q0 -10 29.5 -17t66.5 -7h119q52 0 82 5.5t52.5 24.5t35.5 47t27 79q4 18 27 18 q31 0 43 -11v-430q-9 -9 -41 -9q-27 0 -31 18q-12 50 -28 81t-26.5 40.5t-23.5 15.5q-38 15 -171 15q-161 0 -161 -31v-347q0 -132 18 -177q6 -15 30.5 -25.5t54 -15t61.5 -4.5h147q135 0 209 74q65 65 121 213q3 13 31 13q8 0 19 -1t20.5 -3t17.5 -4.5t10 -4.5 q-5 -14 -26.5 -74.5t-31 -88.5t-25 -76t-24.5 -83t-14 -63q-1006 0 -1093 -3q-7 11 -7.5 41zM401 1861q0 23 13.5 40t34 26.5t41 14.5t36.5 5q23 0 41 -9q73 -56 171 -153t98 -109t-10.5 -28.5t-21.5 -16.5q-13 0 -76.5 24.5t-136.5 59t-131.5 76.5t-58.5 70z" />
<glyph unicode="&#xc9;" horiz-adv-x="1348" d="M77.5 34q-0.5 30 7.5 42q133 10 143 38q13 31 15.5 76t2.5 135v824q0 61 -0.5 90.5t-4.5 64t-13 56.5q-1 4 -6 8.5t-13 7.5t-16 5.5t-19.5 4.5t-20 3.5t-21 2.5t-19 1.5t-16.5 1t-12 1.5q-8 12 -7.5 42t7.5 40q101 -6 320 -6q55 0 371 7.5t357 7.5q7 -50 18 -106 t26.5 -126t20.5 -99q-3 -3 -12.5 -6t-20 -4t-18.5 -1q-29 0 -36 18q-20 52 -39 88t-47.5 70t-67.5 51t-88 17h-186q-23 0 -38.5 -1t-32 -3.5t-27 -8t-14.5 -14.5q-11 -27 -11 -137v-401q0 -10 29.5 -17t66.5 -7h119q52 0 82 5.5t52.5 24.5t35.5 47t27 79q4 18 27 18 q31 0 43 -11v-430q-9 -9 -41 -9q-27 0 -31 18q-12 50 -28 81t-26.5 40.5t-23.5 15.5q-38 15 -171 15q-161 0 -161 -31v-347q0 -132 18 -177q6 -15 30.5 -25.5t54 -15t61.5 -4.5h147q135 0 209 74q65 65 121 213q3 13 31 13q8 0 19 -1t20.5 -3t17.5 -4.5t10 -4.5 q-5 -14 -26.5 -74.5t-31 -88.5t-25 -76t-24.5 -83t-14 -63q-1006 0 -1093 -3q-7 11 -7.5 41zM513 1676q0 12 98 109t171 153q18 9 40 9q17 0 37 -5t40.5 -14.5t34.5 -26.5t14 -40q0 -28 -58.5 -70t-132 -76.5t-137 -59t-76.5 -24.5q-11 0 -21 16.5t-10 28.5z" />
<glyph unicode="&#xca;" horiz-adv-x="1348" d="M77.5 34q-0.5 30 7.5 42q133 10 143 38q13 31 15.5 76t2.5 135v824q0 61 -0.5 90.5t-4.5 64t-13 56.5q-1 4 -6 8.5t-13 7.5t-16 5.5t-19.5 4.5t-20 3.5t-21 2.5t-19 1.5t-16.5 1t-12 1.5q-8 12 -7.5 42t7.5 40q101 -6 320 -6q55 0 371 7.5t357 7.5q7 -50 18 -106 t26.5 -126t20.5 -99q-3 -3 -12.5 -6t-20 -4t-18.5 -1q-29 0 -36 18q-20 52 -39 88t-47.5 70t-67.5 51t-88 17h-186q-23 0 -38.5 -1t-32 -3.5t-27 -8t-14.5 -14.5q-11 -27 -11 -137v-401q0 -10 29.5 -17t66.5 -7h119q52 0 82 5.5t52.5 24.5t35.5 47t27 79q4 18 27 18 q31 0 43 -11v-430q-9 -9 -41 -9q-27 0 -31 18q-12 50 -28 81t-26.5 40.5t-23.5 15.5q-38 15 -171 15q-161 0 -161 -31v-347q0 -132 18 -177q6 -15 30.5 -25.5t54 -15t61.5 -4.5h147q135 0 209 74q65 65 121 213q3 13 31 13q8 0 19 -1t20.5 -3t17.5 -4.5t10 -4.5 q-5 -14 -26.5 -74.5t-31 -88.5t-25 -76t-24.5 -83t-14 -63q-1006 0 -1093 -3q-7 11 -7.5 41zM376 1673q25 19 162 146q19 18 36.5 36t27.5 29t21.5 24.5t14.5 17.5q19 23 30 23q5 0 13 -7t16 -16q53 -58 94 -98q125 -123 168 -155q0 -13 -6.5 -23.5t-16.5 -14.5 q-22 6 -121 54.5t-147 80.5q-50 -33 -146.5 -80.5t-122.5 -54.5q-5 3 -10 8t-9 13.5t-4 16.5z" />
<glyph unicode="&#xcb;" horiz-adv-x="1348" d="M77.5 34q-0.5 30 7.5 42q133 10 143 38q13 31 15.5 76t2.5 135v824q0 61 -0.5 90.5t-4.5 64t-13 56.5q-1 4 -6 8.5t-13 7.5t-16 5.5t-19.5 4.5t-20 3.5t-21 2.5t-19 1.5t-16.5 1t-12 1.5q-8 12 -7.5 42t7.5 40q101 -6 320 -6q55 0 371 7.5t357 7.5q7 -50 18 -106 t26.5 -126t20.5 -99q-3 -3 -12.5 -6t-20 -4t-18.5 -1q-29 0 -36 18q-20 52 -39 88t-47.5 70t-67.5 51t-88 17h-186q-23 0 -38.5 -1t-32 -3.5t-27 -8t-14.5 -14.5q-11 -27 -11 -137v-401q0 -10 29.5 -17t66.5 -7h119q52 0 82 5.5t52.5 24.5t35.5 47t27 79q4 18 27 18 q31 0 43 -11v-430q-9 -9 -41 -9q-27 0 -31 18q-12 50 -28 81t-26.5 40.5t-23.5 15.5q-38 15 -171 15q-161 0 -161 -31v-347q0 -132 18 -177q6 -15 30.5 -25.5t54 -15t61.5 -4.5h147q135 0 209 74q65 65 121 213q3 13 31 13q8 0 19 -1t20.5 -3t17.5 -4.5t10 -4.5 q-5 -14 -26.5 -74.5t-31 -88.5t-25 -76t-24.5 -83t-14 -63q-1006 0 -1093 -3q-7 11 -7.5 41zM260 1785q0 64 43 107t107 43q31 0 59.5 -11.5t48.5 -31.5t32 -47.5t12 -59.5q0 -64 -44 -108t-108 -44t-107 44t-43 108zM764 1785q0 42 20 76.5t55 54t77 19.5t77 -19.5t55 -54 t20 -76.5q0 -64 -44 -108t-108 -44t-108 44t-44 108z" />
<glyph unicode="&#xcc;" horiz-adv-x="806" d="M77.5 32q-0.5 30 7.5 42q132 10 143 40q13 31 15.5 76t2.5 135v824q0 61 -0.5 90.5t-4.5 64t-13 56.5q-11 30 -143 40q-8 12 -7.5 42t7.5 41q153 -16 320 -16q163 0 316 16q7 -11 7.5 -41t-7.5 -42q-131 -10 -143 -40q-12 -31 -15 -76t-3 -135v-824q0 -47 0.5 -69.5 t2 -53.5t5 -51.5t10.5 -36.5q12 -30 143 -40q8 -12 7.5 -42t-7.5 -41q-153 16 -320 16q-163 0 -316 -16q-7 11 -7.5 41zM128 1861q0 23 13.5 40t34 26.5t40.5 14.5t37 5q23 0 40 -9q49 -37 114 -98t110 -109t45 -55q0 -12 -10 -28.5t-21 -16.5q-13 0 -76.5 24.5t-137 59 t-131.5 76.5t-58 70z" />
<glyph unicode="&#xcd;" horiz-adv-x="806" d="M77.5 32q-0.5 30 7.5 42q132 10 143 40q13 31 15.5 76t2.5 135v824q0 61 -0.5 90.5t-4.5 64t-13 56.5q-11 30 -143 40q-8 12 -7.5 42t7.5 41q153 -16 320 -16q163 0 316 16q7 -11 7.5 -41t-7.5 -42q-131 -10 -143 -40q-12 -31 -15 -76t-3 -135v-824q0 -47 0.5 -69.5 t2 -53.5t5 -51.5t10.5 -36.5q12 -30 143 -40q8 -12 7.5 -42t-7.5 -41q-153 16 -320 16q-163 0 -316 -16q-7 11 -7.5 41zM244 1676q0 12 98 109t171 153q18 9 40 9q24 0 51 -8t51 -28.5t24 -49t-58.5 -70.5t-132 -76.5t-136.5 -59t-76 -24.5q-11 0 -21.5 16.5t-10.5 28.5z " />
<glyph unicode="&#xce;" horiz-adv-x="806" d="M77.5 32q-0.5 30 7.5 42q132 10 143 40q13 31 15.5 76t2.5 135v824q0 61 -0.5 90.5t-4.5 64t-13 56.5q-11 30 -143 40q-8 12 -7.5 42t7.5 41q153 -16 320 -16q163 0 316 16q7 -11 7.5 -41t-7.5 -42q-131 -10 -143 -40q-12 -31 -15 -76t-3 -135v-824q0 -47 0.5 -69.5 t2 -53.5t5 -51.5t10.5 -36.5q12 -30 143 -40q8 -12 7.5 -42t-7.5 -41q-153 16 -320 16q-163 0 -316 -16q-7 11 -7.5 41zM116 1673q25 19 162 146q16 14 30 28.5t24.5 26t18.5 20.5t16 18.5t12 13.5q18 23 29 23q2 0 4.5 -1t6 -4t5.5 -5l6.5 -6.5l6.5 -6.5q54 -58 94 -98 q125 -123 168 -155q0 -13 -6 -23.5t-17 -14.5q-22 6 -121 54.5t-147 80.5q-50 -33 -146 -80.5t-123 -54.5q-8 4 -15.5 15t-7.5 23z" />
<glyph unicode="&#xcf;" horiz-adv-x="806" d="M2 1785q0 64 43 107t107 43q42 0 77 -19.5t55.5 -54t20.5 -76.5q0 -64 -44.5 -108t-108.5 -44q-63 0 -106.5 44t-43.5 108zM79.5 32q-0.5 30 7.5 42q132 10 144 40q12 31 15 76t3 135v824q0 61 -1 90.5t-5 64t-12 56.5q-12 30 -144 40q-8 12 -7.5 42t7.5 41 q153 -16 321 -16q163 0 316 16q7 -11 7.5 -41t-7.5 -42q-132 -10 -144 -40q-12 -31 -15 -76t-3 -135v-824q0 -47 0.5 -69.5t2 -53.5t5.5 -51.5t10 -36.5q12 -30 144 -40q8 -12 7.5 -42t-7.5 -41q-153 16 -321 16q-163 0 -316 -16q-7 11 -7.5 41zM506 1785q0 64 44 107 t109 43q31 0 59 -11.5t48.5 -31.5t32.5 -47.5t12 -59.5q0 -64 -44.5 -108t-107.5 -44q-42 0 -77 20t-55.5 55t-20.5 77z" />
<glyph unicode="&#xd0;" horiz-adv-x="1713" d="M69.5 708q-2.5 18 0 40t8.5 32h782q7 0 7 -37.5t-7 -52.5h-784q-4 0 -6.5 18zM88.5 34q-0.5 30 7.5 42q133 10 143 38q13 31 15.5 76t2.5 135v824q0 61 -0.5 90.5t-4.5 64t-13 56.5q-1 4 -6 8.5t-13 7.5t-16 5.5t-19.5 4.5t-20 3.5t-21 2.5t-19 1.5t-16.5 1t-12 1.5 q-8 12 -7.5 42t7.5 40q101 -6 320 -6q54 0 176.5 3t166.5 3q194 0 353 -49t271.5 -141t174 -229t61.5 -306q0 -154 -44.5 -280t-124 -214.5t-190 -148.5t-240 -88.5t-277.5 -28.5h-647q-7 11 -7.5 41zM571 316q0 -132 18 -177q10 -23 52.5 -37.5t88.5 -14.5 q274 0 403.5 156.5t129.5 484.5q0 161 -42 288t-118 208t-179.5 123t-229.5 42q-23 0 -38.5 -1t-32 -3.5t-27 -8t-14.5 -14.5q-11 -27 -11 -137v-909z" />
<glyph unicode="&#xd1;" horiz-adv-x="1702" d="M67 20.5q-1 20.5 1 37t5 16.5q35 0 101 16t78 42q7 16 13.5 54t10 84t3.5 88v793q0 55 -10.5 114t-30.5 88q-13 19 -66 33t-81 14q-9 0 -11 37t6 46q20 -1 54 -4t60.5 -5.5t65 -4.5t73.5 -2q119 0 244 16q30 -61 115 -176.5t168.5 -218.5t224.5 -273.5t211 -258.5 q5 15 5 91v419q0 76 -7 170t-18 117q-8 18 -49.5 30t-76 15.5t-55.5 3.5q-3 0 -5 16.5t-1 37t6 29.5q40 -2 128 -10t145 -8t157 8.5t125 9.5q5 -13 5 -41.5t-9 -43.5q-21 0 -53.5 -2.5t-78.5 -15t-54 -34.5t-15 -116t-7 -159v-762q0 -80 9 -313q-9 -9 -56 -9q-30 0 -70 51 l-912 1123v-811q0 -59 8 -126t17 -92q5 -14 32 -26.5t59.5 -18.5t57.5 -9.5t35 -3.5q9 -15 9 -43.5t-5 -41.5q-25 1 -125 9.5t-157 8.5q-58 0 -145.5 -8t-127.5 -10q-5 9 -6 29.5zM449 1698q0 51 43 107q86 108 208 108q39 0 77.5 -10.5t62 -21.5t61.5 -33q130 -72 186 -72 q42 0 78.5 16.5t56.5 36.5t37.5 39.5t22.5 22.5q8 0 13 -11t5 -21q0 -51 -42 -107q-89 -110 -209 -110q-39 0 -77 10.5t-61.5 21.5t-62.5 33q-6 3 -27 15t-28.5 15.5t-25.5 13t-28 13t-24.5 8.5t-27.5 7t-25 2q-42 0 -78.5 -17t-56.5 -37t-37.5 -40t-22.5 -23q-5 0 -9.5 6.5 t-6.5 14t-2 13.5z" />
<glyph unicode="&#xd2;" horiz-adv-x="1702" d="M90 734.5q0 102.5 29 201.5t80.5 182t123.5 153.5t155.5 119t179.5 76t193 27.5t193 -27.5t180 -76t156 -119t123 -153.5t80.5 -182t29.5 -201.5t-29.5 -201t-80.5 -181.5t-123 -153t-156 -118.5t-180 -75.5t-193 -27t-193 27t-179.5 75.5t-155.5 118.5t-123.5 153 t-80.5 181.5t-29 201zM448 813q0 -89 10.5 -174t32 -169.5t58 -155t84.5 -125t116 -85t149 -30.5q65 0 119 24t92 66.5t67 97.5t45.5 121.5t24.5 133.5t8 137q0 88 -10.5 174t-33 170.5t-60 156t-86 126.5t-117.5 86t-150 31q-64 0 -117 -24.5t-90.5 -67.5t-65.5 -98.5 t-44.5 -122.5t-24 -134t-7.5 -138zM526 1861.5q0 28.5 24 49t51 28.5t51 8q22 0 40 -9q73 -56 171 -153t98 -109t-10.5 -28.5t-20.5 -16.5q-13 0 -76.5 24.5t-137 59t-132 76.5t-58.5 70.5z" />
<glyph unicode="&#xd3;" horiz-adv-x="1702" d="M90 734.5q0 102.5 29 201.5t80.5 182t123.5 153.5t155.5 119t179.5 76t193 27.5t193 -27.5t180 -76t156 -119t123 -153.5t80.5 -182t29.5 -201.5t-29.5 -201t-80.5 -181.5t-123 -153t-156 -118.5t-180 -75.5t-193 -27t-193 27t-179.5 75.5t-155.5 118.5t-123.5 153 t-80.5 181.5t-29 201zM448 813q0 -89 10.5 -174t32 -169.5t58 -155t84.5 -125t116 -85t149 -30.5q65 0 119 24t92 66.5t67 97.5t45.5 121.5t24.5 133.5t8 137q0 88 -10.5 174t-33 170.5t-60 156t-86 126.5t-117.5 86t-150 31q-64 0 -117 -24.5t-90.5 -67.5t-65.5 -98.5 t-44.5 -122.5t-24 -134t-7.5 -138zM715 1676q0 12 97.5 109t170.5 153q18 9 41 9t50 -8t51 -28.5t24 -49t-58.5 -70.5t-131.5 -76.5t-136.5 -59t-76.5 -24.5q-11 0 -21 16.5t-10 28.5z" />
<glyph unicode="&#xd4;" horiz-adv-x="1702" d="M90 734.5q0 102.5 29 201.5t80.5 182t123.5 153.5t155.5 119t179.5 76t193 27.5t193 -27.5t180 -76t156 -119t123 -153.5t80.5 -182t29.5 -201.5t-29.5 -201t-80.5 -181.5t-123 -153t-156 -118.5t-180 -75.5t-193 -27t-193 27t-179.5 75.5t-155.5 118.5t-123.5 153 t-80.5 181.5t-29 201zM448 813q0 -89 10.5 -174t32 -169.5t58 -155t84.5 -125t116 -85t149 -30.5q65 0 119 24t92 66.5t67 97.5t45.5 121.5t24.5 133.5t8 137q0 88 -10.5 174t-33 170.5t-60 156t-86 126.5t-117.5 86t-150 31q-64 0 -117 -24.5t-90.5 -67.5t-65.5 -98.5 t-44.5 -122.5t-24 -134t-7.5 -138zM564 1673q25 19 162 146q16 14 30 28.5t24.5 26t18.5 20.5t16 18.5t12 13.5q18 23 29 23q2 0 4.5 -1t6 -4t5.5 -5l6.5 -6.5l6.5 -6.5q54 -58 94 -98q125 -123 168 -155q0 -13 -6 -23.5t-17 -14.5q-13 4 -64 27.5t-111.5 55t-92.5 52.5 q-50 -33 -146 -80.5t-123 -54.5q-8 4 -15.5 15t-7.5 23z" />
<glyph unicode="&#xd5;" horiz-adv-x="1702" d="M90 734.5q0 102.5 29 201.5t80.5 182t123.5 153.5t155.5 119t179.5 76t193 27.5t193 -27.5t180 -76t156 -119t123 -153.5t80.5 -182t29.5 -201.5t-29.5 -201t-80.5 -181.5t-123 -153t-156 -118.5t-180 -75.5t-193 -27t-193 27t-179.5 75.5t-155.5 118.5t-123.5 153 t-80.5 181.5t-29 201zM441 1698q0 51 43 107q87 108 208 108q39 0 77.5 -10.5t62 -21.5t62.5 -33q130 -72 186 -72q34 0 64 11t50.5 26.5t36 31.5t27 29.5t17.5 16.5q7 0 12 -11t5 -21q0 -51 -42 -107q-89 -110 -208 -110q-39 0 -77.5 10.5t-62 21.5t-62.5 33q-6 3 -27 15 t-28.5 15.5t-25.5 13t-27.5 13t-24.5 8.5t-27.5 7t-25.5 2q-42 0 -78.5 -17t-56 -37t-37 -40t-23.5 -23q-5 0 -9.5 6.5t-6.5 14t-2 13.5zM448 813q0 -89 10.5 -174t32 -169.5t58 -155t84.5 -125t116 -85t149 -30.5q65 0 119 24t92 66.5t67 97.5t45.5 121.5t24.5 133.5t8 137 q0 88 -10.5 174t-33 170.5t-60 156t-86 126.5t-117.5 86t-150 31q-64 0 -117 -24.5t-90.5 -67.5t-65.5 -98.5t-44.5 -122.5t-24 -134t-7.5 -138z" />
<glyph unicode="&#xd6;" horiz-adv-x="1702" d="M90 734.5q0 102.5 29 201.5t80.5 182t123.5 153.5t155.5 119t179.5 76t193 27.5t193 -27.5t180 -76t156 -119t123 -153.5t80.5 -182t29.5 -201.5t-29.5 -201t-80.5 -181.5t-123 -153t-156 -118.5t-180 -75.5t-193 -27t-193 27t-179.5 75.5t-155.5 118.5t-123.5 153 t-80.5 181.5t-29 201zM448 813q0 -89 10.5 -174t32 -169.5t58 -155t84.5 -125t116 -85t149 -30.5q65 0 119 24t92 66.5t67 97.5t45.5 121.5t24.5 133.5t8 137q0 88 -10.5 174t-33 170.5t-60 156t-86 126.5t-117.5 86t-150 31q-64 0 -117 -24.5t-90.5 -67.5t-65.5 -98.5 t-44.5 -122.5t-24 -134t-7.5 -138zM448 1785q0 64 43 107t107 43q32 0 60 -11.5t48.5 -31.5t32 -47.5t11.5 -59.5q0 -64 -44 -108t-108 -44t-107 44t-43 108zM952 1785q0 64 44 107t108 43t108.5 -43t44.5 -107t-44.5 -108t-108.5 -44t-108 44t-44 108z" />
<glyph unicode="&#xd7;" horiz-adv-x="1041" d="M121 240q309 307 318 316l-318 318q0 23 23.5 57t39.5 34q11 0 15 -4q325 -314 330 -318l320 318q4 4 13 4q15 0 37 -40t22 -58q-303 -300 -309 -307l309 -320q0 -27 -20.5 -62t-38.5 -35q-11 0 -15 5l-325 325l-329 -330q-5 -4 -14 -4q-14 0 -36 41t-22 60z" />
<glyph unicode="&#xd8;" horiz-adv-x="1700" d="M90 734.5q0 102.5 29 201.5t80.5 182t123.5 153.5t155.5 119t179.5 76t193 27.5t193 -27.5t180 -76t156 -119t123 -153.5t80.5 -182t29.5 -201.5t-29.5 -201t-80.5 -181.5t-123 -153t-156 -118.5t-180 -75.5t-193 -27t-193 27t-179.5 75.5t-155.5 118.5t-123.5 153 t-80.5 181.5t-29 201zM367 9l845 1505q1 0 7.5 -2.5t11 -4t12.5 -4.5t13.5 -6t12.5 -6t12 -6t9 -6t6 -6t1 -6l-845 -1507q-89 33 -85 49zM448 813q0 -89 10.5 -174t32 -169.5t58 -155t84.5 -125t116 -85t149 -30.5q65 0 119 24t92 66.5t67 97.5t45.5 121.5t24.5 133.5t8 137 q0 88 -10.5 174t-33 170.5t-60 156t-86 126.5t-117.5 86t-150 31q-64 0 -117 -24.5t-90.5 -67.5t-65.5 -98.5t-44.5 -122.5t-24 -134t-7.5 -138z" />
<glyph unicode="&#xd9;" horiz-adv-x="1635" d="M41.5 1442q0.5 30 7.5 41q153 -16 321 -16q163 0 315 16q8 -11 8 -41t-8 -42q-131 -10 -143 -40q-12 -31 -15 -76t-3 -135v-410q0 -133 10.5 -217t45.5 -166q93 -215 341 -215q55 0 106.5 19.5t98.5 62.5t81.5 105.5t55.5 156t21 207.5v381q0 75 -9.5 158t-22.5 115 q-18 42 -168 54q-8 12 -7.5 42t7.5 41q184 -16 280 -16q57 0 146.5 7.5t115.5 8.5q7 -11 7.5 -41t-7.5 -42q-1 0 -12.5 -1t-19 -1.5t-22 -2t-24.5 -3.5t-24 -5t-24 -6.5t-20 -8.5t-16.5 -11.5t-9.5 -14.5q-13 -32 -22.5 -114t-9.5 -157v-434q0 -134 -33 -244t-90 -186.5 t-135 -129t-167.5 -77t-187.5 -24.5q-147 0 -271 49.5t-202 147.5q-44 55 -71.5 126.5t-40.5 162.5t-13 208v475q0 61 -1 90.5t-5 64t-12 56.5q-12 30 -144 40q-8 12 -7.5 42zM589 1861q0 23 13.5 40t34.5 26.5t41 14.5t37 5q22 0 40 -9q73 -56 171 -153t98 -109 t-10.5 -28.5t-21.5 -16.5q-13 0 -76.5 24.5t-136.5 59t-131.5 76.5t-58.5 70z" />
<glyph unicode="&#xda;" horiz-adv-x="1635" d="M41.5 1442q0.5 30 7.5 41q153 -16 321 -16q163 0 315 16q8 -11 8 -41t-8 -42q-131 -10 -143 -40q-12 -31 -15 -76t-3 -135v-410q0 -133 10.5 -217t45.5 -166q93 -215 341 -215q55 0 106.5 19.5t98.5 62.5t81.5 105.5t55.5 156t21 207.5v381q0 75 -9.5 158t-22.5 115 q-18 42 -168 54q-8 12 -7.5 42t7.5 41q184 -16 280 -16q57 0 146.5 7.5t115.5 8.5q7 -11 7.5 -41t-7.5 -42q-1 0 -12.5 -1t-19 -1.5t-22 -2t-24.5 -3.5t-24 -5t-24 -6.5t-20 -8.5t-16.5 -11.5t-9.5 -14.5q-13 -32 -22.5 -114t-9.5 -157v-434q0 -134 -33 -244t-90 -186.5 t-135 -129t-167.5 -77t-187.5 -24.5q-147 0 -271 49.5t-202 147.5q-44 55 -71.5 126.5t-40.5 162.5t-13 208v475q0 61 -1 90.5t-5 64t-12 56.5q-12 30 -144 40q-8 12 -7.5 42zM697 1676q0 12 97.5 109t170.5 153q18 9 41 9t50.5 -8t51 -28.5t23.5 -49t-58.5 -70.5 t-131.5 -76.5t-136.5 -59t-76.5 -24.5q-11 0 -21 16.5t-10 28.5z" />
<glyph unicode="&#xdb;" horiz-adv-x="1635" d="M41.5 1442q0.5 30 7.5 41q153 -16 321 -16q163 0 315 16q8 -11 8 -41t-8 -42q-131 -10 -143 -40q-12 -31 -15 -76t-3 -135v-410q0 -133 10.5 -217t45.5 -166q93 -215 341 -215q55 0 106.5 19.5t98.5 62.5t81.5 105.5t55.5 156t21 207.5v381q0 75 -9.5 158t-22.5 115 q-18 42 -168 54q-8 12 -7.5 42t7.5 41q184 -16 280 -16q57 0 146.5 7.5t115.5 8.5q7 -11 7.5 -41t-7.5 -42q-1 0 -12.5 -1t-19 -1.5t-22 -2t-24.5 -3.5t-24 -5t-24 -6.5t-20 -8.5t-16.5 -11.5t-9.5 -14.5q-13 -32 -22.5 -114t-9.5 -157v-434q0 -134 -33 -244t-90 -186.5 t-135 -129t-167.5 -77t-187.5 -24.5q-147 0 -271 49.5t-202 147.5q-44 55 -71.5 126.5t-40.5 162.5t-13 208v475q0 61 -1 90.5t-5 64t-12 56.5q-12 30 -144 40q-8 12 -7.5 42zM591 1673q25 19 162 146q19 18 36.5 36t27.5 29t21.5 24.5t14.5 17.5q19 23 30 23q2 0 4.5 -1 t6 -4t5.5 -5l6.5 -6.5l6.5 -6.5q53 -58 94 -98q125 -123 168 -155q0 -13 -6.5 -23.5t-16.5 -14.5q-22 6 -121 54.5t-147 80.5q-50 -33 -146.5 -80.5t-122.5 -54.5q-8 4 -15.5 15t-7.5 23z" />
<glyph unicode="&#xdc;" horiz-adv-x="1635" d="M41.5 1442q0.5 30 7.5 41q153 -16 321 -16q163 0 315 16q8 -11 8 -41t-8 -42q-131 -10 -143 -40q-12 -31 -15 -76t-3 -135v-410q0 -133 10.5 -217t45.5 -166q93 -215 341 -215q55 0 106.5 19.5t98.5 62.5t81.5 105.5t55.5 156t21 207.5v381q0 75 -9.5 158t-22.5 115 q-18 42 -168 54q-8 12 -7.5 42t7.5 41q184 -16 280 -16q57 0 146.5 7.5t115.5 8.5q7 -11 7.5 -41t-7.5 -42q-1 0 -12.5 -1t-19 -1.5t-22 -2t-24.5 -3.5t-24 -5t-24 -6.5t-20 -8.5t-16.5 -11.5t-9.5 -14.5q-13 -32 -22.5 -114t-9.5 -157v-434q0 -134 -33 -244t-90 -186.5 t-135 -129t-167.5 -77t-187.5 -24.5q-147 0 -271 49.5t-202 147.5q-44 55 -71.5 126.5t-40.5 162.5t-13 208v475q0 61 -1 90.5t-5 64t-12 56.5q-12 30 -144 40q-8 12 -7.5 42zM477 1785q0 64 43 107t107 43t108.5 -43t44.5 -107t-44.5 -108t-108.5 -44q-63 0 -106.5 44 t-43.5 108zM981 1785q0 64 44 107t108.5 43t108.5 -43t44 -107t-44.5 -108t-108 -44t-108 44t-44.5 108z" />
<glyph unicode="&#xdd;" horiz-adv-x="1397" d="M0.5 1442q0.5 30 7.5 41q153 -16 320 -16q163 0 316 16q7 -11 7.5 -41t-7.5 -42q-1 0 -12 -1t-17 -1.5t-19 -2t-21 -3.5l-20 -5t-19 -7.5t-14.5 -10t-11 -13t-3.5 -16.5t16 -36l269 -495q7 -8 95 147t187 339q11 22 11 51q0 41 -166 54q-8 12 -7.5 42t7.5 41 q22 -2 67.5 -6t63 -5.5t52 -3t71.5 -1.5q56 0 138.5 7t111.5 9q7 -11 7.5 -41t-7.5 -42l-13.5 -1t-20 -1.5t-22 -2.5t-25.5 -4.5t-24.5 -7t-24.5 -9.5t-19.5 -13t-15.5 -17q-45 -65 -205 -326.5t-203 -349.5q-13 -32 -13 -43v-300q0 -61 0.5 -90.5t4.5 -64.5t12 -56 q12 -30 144 -40q8 -12 7.5 -42t-7.5 -41q-153 16 -321 16q-162 0 -315 -16q-7 11 -7.5 41t7.5 42q131 10 143 40q12 31 15 76t3 135v311q0 23 -11 45q-25 55 -95.5 185.5t-128.5 233.5l-59 103q-37 70 -69 123q-15 26 -48.5 43.5t-58.5 23t-45 7.5q-8 12 -7.5 42zM651 1676 q0 5 27.5 36t67.5 70.5t88.5 83.5t84.5 72q18 9 41 9t50 -8t51 -28.5t24 -49t-58.5 -70.5t-131.5 -76.5t-136.5 -59t-76.5 -24.5q-11 0 -21 16.5t-10 28.5z" />
<glyph unicode="&#xde;" horiz-adv-x="1305" d="M77.5 32q-0.5 30 7.5 42q132 10 143 40q13 31 15.5 76t2.5 135v824q0 61 -0.5 90.5t-4.5 64t-13 56.5q-11 30 -143 40q-8 12 -7.5 42t7.5 41q153 -16 320 -16q163 0 316 16q7 -11 7.5 -41t-7.5 -42q-131 -10 -143 -40q-18 -45 -18 -153v-49q116 5 190 5q106 0 198 -27 t160.5 -76.5t108.5 -126t40 -169.5q0 -98 -37.5 -181.5t-99 -138.5t-141 -86t-164.5 -31q-53 0 -95 17.5t-59 34.5q-4 4 -8 14t-6 21t-2 21q0 15 7 15q30 -9 92 -9q83 0 139 82t56 209q0 89 -32 166.5t-91.5 126t-132.5 48.5q-23 0 -38.5 -1t-32 -3.5t-27 -8t-14.5 -14.5 q-5 -12 -7.5 -46t-3.5 -62v-29v-584q0 -47 0.5 -69.5t2 -53.5t5 -51.5t10.5 -36.5q12 -30 143 -40q8 -12 7.5 -42t-7.5 -41q-153 16 -320 16q-163 0 -316 -16q-7 11 -7.5 41z" />
<glyph unicode="&#xdf;" horiz-adv-x="1321" d="M41.5 32q-0.5 30 7.5 42q132 10 144 40q12 31 15 76t3 135v528h-133q-11 5 -11 30q29 40 72 76h72v33q0 75 22.5 149t61 136t90 116t109.5 91t120.5 58.5t120.5 21.5q72 0 142.5 -22.5t125.5 -61.5t89.5 -96.5t34.5 -122.5q0 -31 -7.5 -59t-17.5 -47.5t-27.5 -40.5 t-29.5 -32t-33 -29q-8 -7 -32 -27t-37 -32t-30 -29.5t-25 -33.5t-8 -31q0 -17 8.5 -36.5t23.5 -39.5t32.5 -39.5t39.5 -40.5t41 -37.5t40 -35.5t33 -30q30 -30 48 -49t42.5 -50t37.5 -58.5t23 -64.5t10 -76q0 -66 -23 -125t-62 -102t-88.5 -75t-103 -47.5t-104.5 -15.5 q-39 0 -78.5 7t-73.5 21t-52 32q-20 40 -20 83q0 58 31 105t79 47q14 0 27 -3.5t22.5 -8t20 -14.5t16 -16t13.5 -20t11 -18.5t10 -19.5t8 -16q40 -81 89 -81q72 0 72 108q0 18 -3 35t-11 35.5t-14.5 32t-21.5 33t-22.5 30t-28 32t-27.5 28.5l-31 31l-29 29q-16 17 -47.5 46 t-50.5 47t-44 47t-39 52.5t-24 54.5t-10 63q0 18 6 36t20 38t24.5 32.5t32.5 36.5t31 33q51 57 73.5 103t22.5 117q0 50 -10.5 98t-31 90.5t-57 68t-82.5 25.5q-71 0 -124 -104t-53 -265v-764q0 -61 0.5 -90.5t4.5 -64.5t13 -56q13 -34 96 -40q8 -12 7.5 -42t-7.5 -41 q-153 16 -260 16q-154 0 -307 -16q-7 11 -7.5 41z" />
<glyph unicode="&#xe0;" horiz-adv-x="1057" d="M69 255q0 63 35.5 114t81.5 66q37 11 113 40t168.5 65t132.5 51v47v59q0 87 -37.5 155.5t-94.5 68.5q-12 0 -23.5 -2.5t-20.5 -8t-17 -11.5t-15 -16t-12.5 -18.5t-10.5 -22t-9 -24.5t-8 -27.5t-7 -28.5t-7 -30q-9 -43 -39.5 -70.5t-85.5 -27.5q-47 0 -82 31t-35 76 q0 37 32 92q14 15 52.5 40.5t96.5 56.5t134 53.5t145 22.5q92 0 168.5 -43.5t122 -122t45.5 -177.5v-419q0 -29 7 -50t19 -31.5t27 -10.5q11 0 22.5 3.5t18 6.5t15.5 8l9 5q7 -3 11.5 -15.5t4.5 -22.5q0 -19 -9 -34q-23 -22 -53 -44.5t-82.5 -47t-95.5 -24.5 q-53 0 -103.5 34.5t-66.5 77.5q-28 -25 -114.5 -71t-138.5 -46q-62 0 -117.5 24t-93.5 63t-60.5 88t-22.5 98zM269 1447q0 20 25.5 42.5t77.5 22.5q23 0 45.5 -6t30.5 -14q38 -44 89 -118t85 -129.5t34 -61.5q0 -11 -13 -26t-25 -15q-9 0 -64 36t-119 83.5t-115 101.5 t-51 84zM372 278q1 -35 14 -62.5t33.5 -43.5t43.5 -24.5t45 -8.5q38 0 65 17t27 30v314q-7 -4 -64 -29.5t-84 -42.5q-43 -28 -62.5 -68.5t-17.5 -81.5z" />
<glyph unicode="&#xe1;" horiz-adv-x="1057" d="M69 255q0 63 35.5 114t81.5 66q37 11 113 40t168.5 65t132.5 51v47v59q0 87 -37.5 155.5t-94.5 68.5q-12 0 -23.5 -2.5t-20.5 -8t-17 -11.5t-15 -16t-12.5 -18.5t-10.5 -22t-9 -24.5t-8 -27.5t-7 -28.5t-7 -30q-9 -43 -39.5 -70.5t-85.5 -27.5q-47 0 -82 31t-35 76 q0 37 32 92q14 15 52.5 40.5t96.5 56.5t134 53.5t145 22.5q92 0 168.5 -43.5t122 -122t45.5 -177.5v-419q0 -29 7 -50t19 -31.5t27 -10.5q11 0 22.5 3.5t18 6.5t15.5 8l9 5q7 -3 11.5 -15.5t4.5 -22.5q0 -19 -9 -34q-23 -22 -53 -44.5t-82.5 -47t-95.5 -24.5 q-53 0 -103.5 34.5t-66.5 77.5q-28 -25 -114.5 -71t-138.5 -46q-62 0 -117.5 24t-93.5 63t-60.5 88t-22.5 98zM372 278q1 -35 14 -62.5t33.5 -43.5t43.5 -24.5t45 -8.5q38 0 65 17t27 30v314q-7 -4 -64 -29.5t-84 -42.5q-43 -28 -62.5 -68.5t-17.5 -81.5zM372 1183 q0 6 34 61.5t85 129.5t89 118q9 8 31 14t45 6q52 0 77.5 -22.5t25.5 -42.5q0 -30 -51 -84t-115 -101.5t-119 -83.5t-64 -36q-8 0 -17 7.5t-15 17t-6 16.5z" />
<glyph unicode="&#xe2;" horiz-adv-x="1057" d="M69 255q0 63 35.5 114t81.5 66q37 11 113 40t168.5 65t132.5 51v47v59q0 87 -37.5 155.5t-94.5 68.5q-12 0 -23.5 -2.5t-20.5 -8t-17 -11.5t-15 -16t-12.5 -18.5t-10.5 -22t-9 -24.5t-8 -27.5t-7 -28.5t-7 -30q-9 -43 -39.5 -70.5t-85.5 -27.5q-47 0 -82 31t-35 76 q0 37 32 92q14 15 52.5 40.5t96.5 56.5t134 53.5t145 22.5q92 0 168.5 -43.5t122 -122t45.5 -177.5v-419q0 -29 7 -50t19 -31.5t27 -10.5q11 0 22.5 3.5t18 6.5t15.5 8l9 5q7 -3 11.5 -15.5t4.5 -22.5q0 -19 -9 -34q-23 -22 -53 -44.5t-82.5 -47t-95.5 -24.5 q-53 0 -103.5 34.5t-66.5 77.5q-28 -25 -114.5 -71t-138.5 -46q-62 0 -117.5 24t-93.5 63t-60.5 88t-22.5 98zM253 1194q54 54 148 175q47 61 87 127q13 23 29 23q5 0 9 -2t5.5 -4t6 -7.5t6.5 -9.5q6 -8 33 -47t50 -69q99 -130 155 -186q0 -8 -1.5 -17t-4.5 -16t-6.5 -12 t-7.5 -7q-18 6 -109 67t-136 99q-29 -25 -82.5 -62.5t-99.5 -67t-62 -36.5q-8 4 -14 19.5t-6 32.5zM372 278q1 -35 14 -62.5t33.5 -43.5t43.5 -24.5t45 -8.5q38 0 65 17t27 30v314q-7 -4 -64 -29.5t-84 -42.5q-43 -28 -62.5 -68.5t-17.5 -81.5z" />
<glyph unicode="&#xe3;" horiz-adv-x="1057" d="M69 255q0 63 35.5 114t81.5 66q37 11 113 40t168.5 65t132.5 51v47v59q0 87 -37.5 155.5t-94.5 68.5q-12 0 -23.5 -2.5t-20.5 -8t-17 -11.5t-15 -16t-12.5 -18.5t-10.5 -22t-9 -24.5t-8 -27.5t-7 -28.5t-7 -30q-9 -43 -39.5 -70.5t-85.5 -27.5q-47 0 -82 31t-35 76 q0 37 32 92q14 15 52.5 40.5t96.5 56.5t134 53.5t145 22.5q92 0 168.5 -43.5t122 -122t45.5 -177.5v-419q0 -29 7 -50t19 -31.5t27 -10.5q11 0 22.5 3.5t18 6.5t15.5 8l9 5q7 -3 11.5 -15.5t4.5 -22.5q0 -19 -9 -34q-23 -22 -53 -44.5t-82.5 -47t-95.5 -24.5 q-53 0 -103.5 34.5t-66.5 77.5q-28 -25 -114.5 -71t-138.5 -46q-62 0 -117.5 24t-93.5 63t-60.5 88t-22.5 98zM152 1205q0 52 34 114q70 112 168 112q60 0 134 -49q7 -4 19 -13l10 -7q41 -30 86.5 -52t72.5 -22q34 0 62.5 17t43 37.5t27.5 41t18 23.5q17 0 17 -27 q0 -48 -38 -119q-71 -114 -168 -114q-9 0 -19.5 1t-18 2.5t-18 5.5t-16 5.5t-16.5 7.5t-15 8t-16 9.5t-14.5 9.5t-15.5 10.5t-14 9.5q-103 76 -159 76q-28 0 -50.5 -11t-37 -28t-24.5 -34t-17.5 -31t-11.5 -16q-11 0 -17 11t-6 22zM372 278q1 -35 14 -62.5t33.5 -43.5 t43.5 -24.5t45 -8.5q38 0 65 17t27 30v314q-7 -4 -64 -29.5t-84 -42.5q-43 -28 -62.5 -68.5t-17.5 -81.5z" />
<glyph unicode="&#xe4;" horiz-adv-x="1057" d="M69 255q0 63 35.5 114t81.5 66q37 11 113 40t168.5 65t132.5 51v47v59q0 87 -37.5 155.5t-94.5 68.5q-12 0 -23.5 -2.5t-20.5 -8t-17 -11.5t-15 -16t-12.5 -18.5t-10.5 -22t-9 -24.5t-8 -27.5t-7 -28.5t-7 -30q-9 -43 -39.5 -70.5t-85.5 -27.5q-47 0 -82 31t-35 76 q0 37 32 92q14 15 52.5 40.5t96.5 56.5t134 53.5t145 22.5q92 0 168.5 -43.5t122 -122t45.5 -177.5v-419q0 -29 7 -50t19 -31.5t27 -10.5q11 0 22.5 3.5t18 6.5t15.5 8l9 5q7 -3 11.5 -15.5t4.5 -22.5q0 -19 -9 -34q-23 -22 -53 -44.5t-82.5 -47t-95.5 -24.5 q-53 0 -103.5 34.5t-66.5 77.5q-28 -25 -114.5 -71t-138.5 -46q-62 0 -117.5 24t-93.5 63t-60.5 88t-22.5 98zM103 1304q0 64 43 107t107 43t108 -43.5t44 -106.5q0 -64 -44 -108.5t-108 -44.5t-107 44.5t-43 108.5zM372 278q1 -35 14 -62.5t33.5 -43.5t43.5 -24.5t45 -8.5 q38 0 65 17t27 30v314q-7 -4 -64 -29.5t-84 -42.5q-43 -28 -62.5 -68.5t-17.5 -81.5zM573 1304q0 63 44.5 106.5t108.5 43.5t108 -43.5t44 -106.5q0 -42 -20 -77t-55 -55.5t-77 -20.5q-64 0 -108.5 44.5t-44.5 108.5z" />
<glyph unicode="&#xe5;" horiz-adv-x="1057" d="M69 255q0 63 35.5 114t81.5 66q37 11 113 40t168.5 65t132.5 51v47v59q0 87 -37.5 155.5t-94.5 68.5q-12 0 -23.5 -2.5t-20.5 -8t-17 -11.5t-15 -16t-12.5 -18.5t-10.5 -22t-9 -24.5t-8 -27.5t-7 -28.5t-7 -30q-9 -43 -39.5 -70.5t-85.5 -27.5q-47 0 -82 31t-35 76 q0 37 32 92q14 15 52.5 40.5t96.5 56.5t134 53.5t145 22.5q92 0 168.5 -43.5t122 -122t45.5 -177.5v-419q0 -29 7 -50t19 -31.5t27 -10.5q11 0 22.5 3.5t18 6.5t15.5 8l9 5q7 -3 11.5 -15.5t4.5 -22.5q0 -19 -9 -34q-23 -22 -53 -44.5t-82.5 -47t-95.5 -24.5 q-53 0 -103.5 34.5t-66.5 77.5q-28 -25 -114.5 -71t-138.5 -46q-62 0 -117.5 24t-93.5 63t-60.5 88t-22.5 98zM327 1366q0 103 73 175t175.5 72t175.5 -72t73 -175q0 -102 -73 -176t-175 -74q-51 0 -97 20t-79 53.5t-53 80t-20 96.5zM372 278q1 -35 14 -62.5t33.5 -43.5 t43.5 -24.5t45 -8.5q38 0 65 17t27 30v314q-7 -4 -64 -29.5t-84 -42.5q-43 -28 -62.5 -68.5t-17.5 -81.5zM432 1366q0 -61 42 -104t102 -43t102.5 43.5t42.5 103.5q0 61 -42.5 103.5t-102.5 42.5q-61 0 -102.5 -42.5t-41.5 -103.5z" />
<glyph unicode="&#xe6;" horiz-adv-x="1559" d="M69 255q0 63 35.5 114t81.5 66q138 43 452 154q7 5 12.5 21t5.5 28q0 50 -4 74q-16 93 -69.5 151t-114.5 58q-12 0 -23.5 -2.5t-20.5 -8t-17 -11.5t-15 -16t-12.5 -18.5t-10.5 -22t-9 -24.5t-8 -27.5t-7 -28.5t-7 -30q-9 -43 -39.5 -70.5t-85.5 -27.5q-47 0 -82 31 t-35 76q0 37 32 92q14 15 52.5 40.5t96.5 56.5t134 53.5t145 22.5q52 0 100 -14.5t89 -42t73 -66.5q60 55 132.5 86.5t147.5 31.5q84 0 152.5 -22.5t112 -58.5t73 -82t42 -90t12.5 -85q0 -24 -8 -45.5t-22 -34.5t-31 -14q-202 -18 -537 -27q0 -65 12 -119.5t32 -92t47.5 -67 t56 -47t59.5 -29t56.5 -15.5t49.5 -4q149 0 251 112q11 -3 19 -16t8 -24q0 -33 -7 -43q-14 -21 -37 -46.5t-62 -56.5t-83 -56t-103.5 -41.5t-119.5 -16.5q-114 0 -207.5 42t-151.5 121q-83 -67 -186.5 -114t-162.5 -47q-62 0 -117.5 24t-93.5 63t-60.5 88t-22.5 98zM372 278 q1 -35 14 -62.5t33.5 -43.5t43.5 -24.5t45 -8.5q44 0 99.5 31t55.5 58q-34 106 -34 207q0 31 3 65q-5 -2 -50.5 -17.5t-77 -28.5t-52.5 -26q-43 -28 -62.5 -68.5t-17.5 -81.5zM894 632q15 -2 131.5 5.5t157.5 12.5q29 2 29 35q0 41 -7.5 79t-23 71.5t-43 53.5t-63.5 20 q-37 0 -69 -21.5t-52 -54t-34 -71.5t-20 -72t-6 -58z" />
<glyph unicode="&#xe7;" horiz-adv-x="1001" d="M69 448q0 81 31 162.5t86.5 151.5t127.5 124.5t161 86t179 31.5q83 0 143 -13t83 -28q14 -15 21.5 -25t15.5 -32.5t8 -49.5q0 -34 -15 -65t-45.5 -52.5t-69.5 -21.5q-17 0 -33 5.5t-31 19t-24 22.5t-25 28.5t-21 25.5q-29 32 -70 50.5t-83 18.5q-46 0 -83 -49.5t-55 -119 t-18 -140.5q0 -91 20 -163t52 -117.5t75 -75.5t86.5 -42t88.5 -12q149 0 251 112q11 -3 19 -16t8 -24q0 -33 -7 -43q-13 -21 -36.5 -46.5t-62.5 -56.5t-83 -56t-103.5 -41.5t-119.5 -16.5q-95 0 -180 32.5t-149.5 91t-103 148t-38.5 196.5zM388 -269q0 16 6 16 q67 -34 108 -34q52 0 75 20t23 47q0 30 -13 52t-45 22q-19 0 -58 -15q-6 0 -17.5 12t-11.5 21q40 68 62 124h72q-18 -32 -29 -52q36 4 49 4q45 0 78.5 -32.5t33.5 -76.5q0 -82 -58.5 -135t-158.5 -53q-34 0 -64 11t-44 24q-3 5 -5.5 21t-2.5 24z" />
<glyph unicode="&#xe8;" horiz-adv-x="1030" d="M72 448q0 104 41.5 205.5t109.5 177.5t160 123t186 47q84 0 153 -22.5t112 -58.5t73 -82t42 -90t12 -85q0 -37 -17.5 -64.5t-43.5 -29.5q-201 -18 -537 -27q0 -89 23.5 -158.5t57.5 -109t79 -64.5t82 -33.5t71 -8.5q149 0 251 112q11 -3 19 -16t8 -24q0 -33 -6 -43 q-14 -21 -37.5 -46.5t-62 -56.5t-83 -56t-103.5 -41.5t-120 -16.5q-75 0 -145 20t-129 60.5t-103 96t-68.5 130.5t-24.5 161zM284 1447q0 20 26 42.5t78 22.5q23 0 45 -6t31 -14q38 -44 89 -118t85 -129.5t34 -61.5q0 -11 -13.5 -26t-24.5 -15q-9 0 -64 36t-119 83.5 t-115.5 101.5t-51.5 84zM365 632q15 -2 132 5.5t157 12.5q29 2 29 35q0 41 -7.5 79t-22.5 71.5t-42.5 53.5t-63.5 20q-38 0 -70 -21.5t-52 -54t-34 -71.5t-20 -72t-6 -58z" />
<glyph unicode="&#xe9;" horiz-adv-x="1030" d="M72 448q0 104 41.5 205.5t109.5 177.5t160 123t186 47q84 0 153 -22.5t112 -58.5t73 -82t42 -90t12 -85q0 -37 -17.5 -64.5t-43.5 -29.5q-201 -18 -537 -27q0 -89 23.5 -158.5t57.5 -109t79 -64.5t82 -33.5t71 -8.5q149 0 251 112q11 -3 19 -16t8 -24q0 -33 -6 -43 q-14 -21 -37.5 -46.5t-62 -56.5t-83 -56t-103.5 -41.5t-120 -16.5q-75 0 -145 20t-129 60.5t-103 96t-68.5 130.5t-24.5 161zM365 632q15 -2 132 5.5t157 12.5q29 2 29 35q0 41 -7.5 79t-22.5 71.5t-42.5 53.5t-63.5 20q-38 0 -70 -21.5t-52 -54t-34 -71.5t-20 -72t-6 -58z M419 1183q0 6 34 61.5t85 129.5t89 118q9 8 31 14t45 6q52 0 77.5 -22.5t25.5 -42.5q0 -30 -51 -84t-115 -101.5t-119 -83.5t-64 -36q-7 0 -16.5 7.5t-15.5 17t-6 16.5z" />
<glyph unicode="&#xea;" horiz-adv-x="1030" d="M72 448q0 104 41.5 205.5t109.5 177.5t160 123t186 47q84 0 153 -22.5t112 -58.5t73 -82t42 -90t12 -85q0 -37 -17.5 -64.5t-43.5 -29.5q-201 -18 -537 -27q0 -89 23.5 -158.5t57.5 -109t79 -64.5t82 -33.5t71 -8.5q149 0 251 112q11 -3 19 -16t8 -24q0 -33 -6 -43 q-14 -21 -37.5 -46.5t-62 -56.5t-83 -56t-103.5 -41.5t-120 -16.5q-75 0 -145 20t-129 60.5t-103 96t-68.5 130.5t-24.5 161zM278 1194q54 54 148 175q46 61 87 127q13 23 29 23q5 0 8.5 -2t5.5 -4t6 -7.5t7 -9.5q6 -8 32.5 -47t50.5 -69q99 -130 154 -186q0 -11 -2.5 -22 t-7 -19t-10.5 -11q-11 4 -57.5 33.5t-101.5 68.5t-85 64q-44 -38 -131 -96.5t-113 -69.5q-8 4 -14 19.5t-6 32.5zM365 632q15 -2 132 5.5t157 12.5q29 2 29 35q0 41 -7.5 79t-22.5 71.5t-42.5 53.5t-63.5 20q-38 0 -70 -21.5t-52 -54t-34 -71.5t-20 -72t-6 -58z" />
<glyph unicode="&#xeb;" horiz-adv-x="1030" d="M72 448q0 104 41.5 205.5t109.5 177.5t160 123t186 47q84 0 153 -22.5t112 -58.5t73 -82t42 -90t12 -85q0 -37 -17.5 -64.5t-43.5 -29.5q-201 -18 -537 -27q0 -89 23.5 -158.5t57.5 -109t79 -64.5t82 -33.5t71 -8.5q149 0 251 112q11 -3 19 -16t8 -24q0 -33 -6 -43 q-14 -21 -37.5 -46.5t-62 -56.5t-83 -56t-103.5 -41.5t-120 -16.5q-75 0 -145 20t-129 60.5t-103 96t-68.5 130.5t-24.5 161zM146 1304q0 64 43 107t107 43t108 -43.5t44 -106.5q0 -64 -44 -108.5t-108 -44.5t-107 44.5t-43 108.5zM365 632q15 -2 132 5.5t157 12.5 q29 2 29 35q0 41 -7.5 79t-22.5 71.5t-42.5 53.5t-63.5 20q-38 0 -70 -21.5t-52 -54t-34 -71.5t-20 -72t-6 -58zM616 1304q0 42 20 76.5t55 54t77 19.5q64 0 108.5 -43.5t44.5 -106.5q0 -64 -44.5 -108.5t-108.5 -44.5t-108 44.5t-44 108.5z" />
<glyph unicode="&#xec;" horiz-adv-x="705" d="M64.5 32q-0.5 30 7.5 42q131 10 143 40q12 31 15 76t3 135v257q0 21 -1 51.5t-6 74t-13 58.5t-41 26t-60.5 15t-39.5 4q-6 4 -6 36.5t8 32.5q117 10 239 45.5t198 73.5q11 -3 24.5 -17.5t13.5 -20.5q-5 -13 -13 -58.5t-10 -69.5q-2 -49 -2 -141v-367q0 -55 0.5 -84.5 t5 -67.5t12.5 -59q12 -31 128 -40q8 -12 7.5 -42t-7.5 -41q-153 16 -291 16q-154 0 -307 -16q-7 11 -7.5 41zM132 1447q0 20 26 42.5t77 22.5q24 0 46 -6t30 -14q38 -44 89.5 -118t85.5 -129.5t34 -61.5q0 -11 -13.5 -26t-24.5 -15q-10 0 -65 36t-118.5 83.5t-115 101.5 t-51.5 84z" />
<glyph unicode="&#xed;" horiz-adv-x="705" d="M64.5 32q-0.5 30 7.5 42q131 10 143 40q12 31 15 76t3 135v257q0 21 -1 51.5t-6 74t-13 58.5t-41 26t-60.5 15t-39.5 4q-6 4 -6 36.5t8 32.5q117 10 239 45.5t198 73.5q11 -3 24.5 -17.5t13.5 -20.5q-5 -13 -13 -58.5t-10 -69.5q-2 -49 -2 -141v-367q0 -55 0.5 -84.5 t5 -67.5t12.5 -59q12 -31 128 -40q8 -12 7.5 -42t-7.5 -41q-153 16 -291 16q-154 0 -307 -16q-7 11 -7.5 41zM213 1183q0 6 34 61.5t85 129.5t89 118q9 8 31 14t45 6q52 0 77.5 -22.5t25.5 -42.5q0 -30 -51 -84t-115 -101.5t-119 -83.5t-64 -36q-11 0 -24.5 15t-13.5 26z " />
<glyph unicode="&#xee;" horiz-adv-x="705" d="M64.5 32q-0.5 30 7.5 42q131 10 143 40q12 31 15 76t3 135v257q0 21 -1 51.5t-6 74t-13 58.5t-41 26t-60.5 15t-39.5 4q-6 4 -6 36.5t8 32.5q117 10 239 45.5t198 73.5q11 -3 24.5 -17.5t13.5 -20.5q-5 -13 -13 -58.5t-10 -69.5q-2 -49 -2 -141v-367q0 -55 0.5 -84.5 t5 -67.5t12.5 -59q12 -31 128 -40q8 -12 7.5 -42t-7.5 -41q-153 16 -291 16q-154 0 -307 -16q-7 11 -7.5 41zM90 1194q53 54 147 175q47 61 88 127q13 23 29 23q4 0 7 -1t5.5 -3.5t4 -4.5t4.5 -6.5t6 -7.5q6 -8 32.5 -47t50.5 -69q99 -130 154 -186q0 -11 -2.5 -22t-7 -19 t-10.5 -11q-11 4 -57.5 33.5t-102 68.5t-84.5 64q-44 -38 -131.5 -96.5t-112.5 -69.5q-9 4 -14.5 19.5t-5.5 32.5z" />
<glyph unicode="&#xef;" horiz-adv-x="705" d="M-25 1301q0 64 46.5 109.5t110.5 45.5t110.5 -45.5t46.5 -109.5q0 -63 -46.5 -109.5t-110.5 -46.5t-110.5 46.5t-46.5 109.5zM66.5 32q-0.5 30 7.5 42q132 10 143 40q12 31 15 76t3 135v257q0 21 -1 51.5t-6 74t-13 58.5q-11 22 -63 33.5t-78 11.5q-6 4 -6 36.5t8 32.5 q117 10 239.5 45.5t197.5 73.5q7 -2 16.5 -10t15.5 -16.5t6 -11.5q-5 -13 -13 -58.5t-9 -69.5q-3 -49 -3 -141v-367q0 -55 1 -84.5t5 -67.5t12 -59q12 -31 128 -40q8 -12 7.5 -42t-7.5 -41q-153 16 -291 16q-154 0 -307 -16q-7 11 -7.5 41zM428 1301q0 32 12 60.5t33 49 t49.5 33t59.5 12.5q64 0 110.5 -45.5t46.5 -109.5q0 -63 -46.5 -109.5t-110.5 -46.5q-41 0 -77 21t-56.5 57.5t-20.5 77.5z" />
<glyph unicode="&#xf0;" horiz-adv-x="1209" d="M74 488q0 101 28.5 187t76.5 145t110 101.5t128.5 62.5t133.5 20q70 0 146 -18q-24 68 -61.5 133t-94 132t-139.5 128t-185 106q-8 45 16 63q60 -9 136.5 -36t162 -70.5t174 -110t156.5 -144.5q233 -260 233 -607q0 -168 -64 -303.5t-180 -212.5t-262 -77 q-73 0 -144.5 17.5t-139 56.5t-118.5 96t-82 142.5t-31 188.5zM258 1203l564 383q1 -2 5 -6t7 -8t7.5 -9.5t8 -10t8 -10.5t7 -10.5t4.5 -9.5t1.5 -7.5t-1.5 -4.5l-567 -386q-56 67 -44 79zM383 475q0 -54 7 -103.5t19.5 -88.5t29 -72t35.5 -57t39.5 -40.5t41 -24.5t39.5 -8 q43 0 77 25t55 65.5t34.5 97t18.5 114t5 121.5q0 206 -65 336q-49 69 -128 69q-46 0 -82.5 -25.5t-59.5 -68t-38.5 -100t-21.5 -117t-6 -123.5z" />
<glyph unicode="&#xf1;" horiz-adv-x="1335" d="M57.5 32q-0.5 30 7.5 42q132 10 143 40q12 31 15 76t3 135v257q0 21 -1 51.5t-6 74t-13 58.5q-11 22 -63 33.5t-78 11.5q-6 4 -6 36.5t8 32.5q117 10 239.5 45.5t197.5 73.5q10 0 24 -14.5t14 -23.5l-4 -20t-6 -32.5t-6 -34.5t-4.5 -28.5t-1.5 -12.5q0 -11 2 -13 q4 0 16 11q52 60 146.5 114t166.5 54q64 0 111.5 -14t81 -45t55.5 -72t34.5 -103.5t17.5 -131.5t5 -163v-145v-56t1 -46t3 -44t5.5 -34t8.5 -31q11 -30 143 -40q8 -12 7.5 -42t-7.5 -41q-153 16 -307 16q-127 0 -280 -16q-7 11 -7.5 41t7.5 42q104 8 117 40q12 31 15 76 t3 135v177q0 65 -7 118t-23.5 99.5t-47 72.5t-72.5 26q-43 0 -90 -22t-77.5 -52t-30.5 -52v-367q0 -55 1 -84.5t5 -67.5t12 -59q12 -31 128 -40q8 -12 7.5 -42t-7.5 -41q-153 16 -291 16q-154 0 -307 -16q-7 11 -7.5 41zM320 1205q0 52 34 114q70 112 168 112q60 0 134 -49 q7 -4 19 -13l10 -7q41 -30 86.5 -52t72.5 -22q34 0 62.5 17t43 37.5t27.5 41t18 23.5q17 0 17 -27q0 -48 -38 -119q-71 -114 -168 -114q-9 0 -19.5 1t-18 2.5t-18 5.5t-16 5.5t-16.5 7.5t-15 8t-16 9.5t-14.5 9.5t-15.5 10.5t-14 9.5q-103 76 -159 76q-28 0 -50.5 -11 t-37 -28t-24.5 -34t-17.5 -31t-11.5 -16q-11 0 -17 11t-6 22z" />
<glyph unicode="&#xf2;" horiz-adv-x="1191" d="M72 486q0 104 40.5 199t110 164.5t166.5 110.5t205 41q114 0 212 -38t167 -103.5t108 -158t39 -197.5q0 -104 -40.5 -200t-109.5 -166t-166 -112t-206 -42q-114 0 -213 39t-167.5 106t-107 159.5t-38.5 197.5zM329 1447q0 20 26 42.5t77 22.5q24 0 46 -6t30 -14 q38 -44 89.5 -118t85.5 -129.5t34 -61.5q0 -11 -13.5 -26t-24.5 -15q-9 0 -64.5 36t-119 83.5t-115 101.5t-51.5 84zM390 531q0 -61 8 -123t26 -121.5t44.5 -105.5t65.5 -74.5t86 -28.5q40 0 70.5 16t49.5 46t32 64.5t19 80t8.5 83.5t2.5 84q0 79 -14 156.5t-41 146.5 t-73.5 111.5t-104.5 42.5q-39 0 -69.5 -16t-49.5 -46t-31.5 -64.5t-18.5 -81.5t-8 -85t-2 -85z" />
<glyph unicode="&#xf3;" horiz-adv-x="1191" d="M72 486q0 104 40.5 199t110 164.5t166.5 110.5t205 41q114 0 212 -38t167 -103.5t108 -158t39 -197.5q0 -104 -40.5 -200t-109.5 -166t-166 -112t-206 -42q-114 0 -213 39t-167.5 106t-107 159.5t-38.5 197.5zM390 531q0 -61 8 -123t26 -121.5t44.5 -105.5t65.5 -74.5 t86 -28.5q40 0 70.5 16t49.5 46t32 64.5t19 80t8.5 83.5t2.5 84q0 79 -14 156.5t-41 146.5t-73.5 111.5t-104.5 42.5q-39 0 -69.5 -16t-49.5 -46t-31.5 -64.5t-18.5 -81.5t-8 -85t-2 -85zM500 1183q0 6 33.5 61.5t85 129.5t89.5 118q8 8 30.5 14t45.5 6q52 0 77.5 -22.5 t25.5 -42.5q0 -30 -51.5 -84t-115 -101.5t-118.5 -83.5t-64 -36q-12 0 -25 15t-13 26z" />
<glyph unicode="&#xf4;" horiz-adv-x="1191" d="M72 486q0 104 40.5 199t110 164.5t166.5 110.5t205 41q114 0 212 -38t167 -103.5t108 -158t39 -197.5q0 -104 -40.5 -200t-109.5 -166t-166 -112t-206 -42q-114 0 -213 39t-167.5 106t-107 159.5t-38.5 197.5zM336 1194q54 54 148 175q46 61 87 127q13 23 29 23q4 0 7 -1 t5.5 -3.5t4 -4.5t5 -6.5t5.5 -7.5q9 -12 22.5 -31.5t28 -41t32.5 -43.5q99 -130 155 -186q0 -17 -6 -32.5t-15 -19.5q-11 4 -57.5 33.5t-101.5 68.5t-85 64q-29 -25 -82.5 -62.5t-99.5 -67t-62 -36.5q-8 4 -14 19.5t-6 32.5zM390 531q0 -61 8 -123t26 -121.5t44.5 -105.5 t65.5 -74.5t86 -28.5q40 0 70.5 16t49.5 46t32 64.5t19 80t8.5 83.5t2.5 84q0 79 -14 156.5t-41 146.5t-73.5 111.5t-104.5 42.5q-39 0 -69.5 -16t-49.5 -46t-31.5 -64.5t-18.5 -81.5t-8 -85t-2 -85z" />
<glyph unicode="&#xf5;" horiz-adv-x="1191" d="M72 486q0 104 40.5 199t110 164.5t166.5 110.5t205 41q114 0 212 -38t167 -103.5t108 -158t39 -197.5q0 -104 -40.5 -200t-109.5 -166t-166 -112t-206 -42q-114 0 -213 39t-167.5 106t-107 159.5t-38.5 197.5zM260 1205q0 52 33 114q70 112 168 112q10 0 20 -1t18 -2.5 t18.5 -5t16 -5.5t16.5 -8t15 -8t16 -9.5t14.5 -9t15.5 -10.5t14 -10q26 -20 55 -36.5t57.5 -27t46.5 -10.5q34 0 62.5 17t43 37.5t27.5 41t17 23.5q18 0 18 -27q0 -48 -38 -119q-71 -114 -168 -114q-10 0 -20 1t-18 2.5t-18 5.5t-16 5.5t-17 7.5t-15 8t-15.5 9.5t-14 9.5 t-15.5 10.5t-15 9.5q-103 76 -159 76q-27 0 -50 -11t-37 -28t-24.5 -34t-17.5 -31t-12 -16q-10 0 -16 11t-6 22zM390 531q0 -61 8 -123t26 -121.5t44.5 -105.5t65.5 -74.5t86 -28.5q40 0 70.5 16t49.5 46t32 64.5t19 80t8.5 83.5t2.5 84q0 79 -14 156.5t-41 146.5 t-73.5 111.5t-104.5 42.5q-39 0 -69.5 -16t-49.5 -46t-31.5 -64.5t-18.5 -81.5t-8 -85t-2 -85z" />
<glyph unicode="&#xf6;" horiz-adv-x="1191" d="M72 486q0 104 40.5 199t110 164.5t166.5 110.5t205 41q114 0 212 -38t167 -103.5t108 -158t39 -197.5q0 -104 -40.5 -200t-109.5 -166t-166 -112t-206 -42q-114 0 -213 39t-167.5 106t-107 159.5t-38.5 197.5zM199 1304q0 64 43.5 107t106.5 43q65 0 109 -43.5t44 -106.5 q0 -42 -20.5 -77t-55.5 -55.5t-76.5 -20.5t-76 20.5t-54.5 55.5t-20 77zM390 531q0 -61 8 -123t26 -121.5t44.5 -105.5t65.5 -74.5t86 -28.5q40 0 70.5 16t49.5 46t32 64.5t19 80t8.5 83.5t2.5 84q0 79 -14 156.5t-41 146.5t-73.5 111.5t-104.5 42.5q-39 0 -69.5 -16 t-49.5 -46t-31.5 -64.5t-18.5 -81.5t-8 -85t-2 -85zM670 1304q0 42 20 76.5t55 54t77 19.5q64 0 108 -43.5t44 -106.5q0 -32 -11.5 -60t-32 -48.5t-49 -32.5t-59.5 -12q-64 0 -108 44.5t-44 108.5z" />
<glyph unicode="&#xf7;" horiz-adv-x="1326" d="M128 535q0 16 5.5 46.5t18.5 47.5h1031q9 0 14.5 -9.5t5.5 -21.5q0 -59 -31 -98h-1031q-13 0 -13 35zM522 143q0 57 41 98t98 41t98 -41t41 -98t-41 -98t-98 -41t-98 41t-41 98zM522 968q0 57 41 98t98 41t98 -41t41 -98t-41 -98t-98 -41t-98 41t-41 98z" />
<glyph unicode="&#xf8;" horiz-adv-x="1191" d="M72 486q0 104 40.5 199t110 164.5t166.5 110.5t205 41q114 0 212 -38t167 -103.5t108 -158t39 -197.5q0 -104 -40.5 -200t-109.5 -166t-166 -112t-206 -42q-114 0 -213 39t-167.5 106t-107 159.5t-38.5 197.5zM269 9l567 1010q1 0 4 -1q12 -5 20.5 -8.5t22 -9.5t20 -12 t4.5 -11l-567 -1013q-76 29 -71 45zM390 531q0 -61 8 -123t26 -121.5t44.5 -105.5t65.5 -74.5t86 -28.5q40 0 70.5 16t49.5 46t32 64.5t19 80t8.5 83.5t2.5 84q0 79 -14 156.5t-41 146.5t-73.5 111.5t-104.5 42.5q-39 0 -69.5 -16t-49.5 -46t-31.5 -64.5t-18.5 -81.5t-8 -85 t-2 -85z" />
<glyph unicode="&#xf9;" horiz-adv-x="1267" d="M21 847.5q-1 32.5 7 32.5q117 10 240.5 46t198.5 73q11 -3 23.5 -17.5t12.5 -20.5q-5 -13 -13 -58.5t-10 -69.5v-141v-201q0 -94 8 -158.5t27.5 -113t54 -71.5t85.5 -23q23 0 49 8.5t46.5 20.5t34 27t13.5 27v374q0 36 -5 99.5t-16.5 85t-62.5 33t-77 11.5 q-5 4 -6.5 36.5t6.5 32.5q117 10 240.5 46t198.5 73q11 -3 23.5 -17.5t12.5 -20.5q-5 -13 -13 -58.5t-9 -69.5q-1 -22 -1 -53t0.5 -59t0.5 -29v-450v-12v-12.5v-11t1 -11.5t2 -10t3 -10.5t5 -8.5t7 -9q20 -23 103 -23q4 -4 4 -29q0 -22 -13 -42q-45 -5 -111.5 -18 t-120.5 -26.5t-99 -24t-55 -10.5q-7 0 -12.5 15t-5.5 39v36q0 5 -2 9.5t-7 1.5q-18 -12 -43 -25.5t-66.5 -31t-95 -28.5t-108.5 -11q-63 0 -113 21.5t-82 58.5t-53 89t-30 109t-9 123v192q0 36 -5.5 99.5t-17 85t-62 33t-76.5 11.5q-6 4 -7 36.5zM301 1447q0 20 26 42.5 t77 22.5q24 0 46 -6t30 -14q38 -44 89.5 -118t85.5 -129.5t34 -61.5q0 -11 -13.5 -26t-24.5 -15q-10 0 -65 36t-118.5 83.5t-115 101.5t-51.5 84z" />
<glyph unicode="&#xfa;" horiz-adv-x="1267" d="M21 847.5q-1 32.5 7 32.5q117 10 240.5 46t198.5 73q11 -3 23.5 -17.5t12.5 -20.5q-5 -13 -13 -58.5t-10 -69.5v-141v-201q0 -94 8 -158.5t27.5 -113t54 -71.5t85.5 -23q23 0 49 8.5t46.5 20.5t34 27t13.5 27v374q0 36 -5 99.5t-16.5 85t-62.5 33t-77 11.5 q-5 4 -6.5 36.5t6.5 32.5q117 10 240.5 46t198.5 73q11 -3 23.5 -17.5t12.5 -20.5q-5 -13 -13 -58.5t-9 -69.5q-1 -22 -1 -53t0.5 -59t0.5 -29v-450v-12v-12.5v-11t1 -11.5t2 -10t3 -10.5t5 -8.5t7 -9q20 -23 103 -23q4 -4 4 -29q0 -22 -13 -42q-45 -5 -111.5 -18 t-120.5 -26.5t-99 -24t-55 -10.5q-7 0 -12.5 15t-5.5 39v36q0 5 -2 9.5t-7 1.5q-18 -12 -43 -25.5t-66.5 -31t-95 -28.5t-108.5 -11q-63 0 -113 21.5t-82 58.5t-53 89t-30 109t-9 123v192q0 36 -5.5 99.5t-17 85t-62 33t-76.5 11.5q-6 4 -7 36.5zM557 1183q0 4 21 39.5 t51 82.5t68.5 100t67.5 87q8 8 30.5 14t45.5 6q52 0 77.5 -22.5t25.5 -42.5q0 -30 -51.5 -84t-115 -101.5t-118.5 -83.5t-64 -36q-12 0 -25 15t-13 26z" />
<glyph unicode="&#xfb;" horiz-adv-x="1267" d="M21 847.5q-1 32.5 7 32.5q117 10 240.5 46t198.5 73q11 -3 23.5 -17.5t12.5 -20.5q-5 -13 -13 -58.5t-10 -69.5v-141v-201q0 -94 8 -158.5t27.5 -113t54 -71.5t85.5 -23q23 0 49 8.5t46.5 20.5t34 27t13.5 27v374q0 36 -5 99.5t-16.5 85t-62.5 33t-77 11.5 q-5 4 -6.5 36.5t6.5 32.5q117 10 240.5 46t198.5 73q11 -3 23.5 -17.5t12.5 -20.5q-5 -13 -13 -58.5t-9 -69.5q-1 -22 -1 -53t0.5 -59t0.5 -29v-450v-12v-12.5v-11t1 -11.5t2 -10t3 -10.5t5 -8.5t7 -9q20 -23 103 -23q4 -4 4 -29q0 -22 -13 -42q-45 -5 -111.5 -18 t-120.5 -26.5t-99 -24t-55 -10.5q-7 0 -12.5 15t-5.5 39v36q0 5 -2 9.5t-7 1.5q-18 -12 -43 -25.5t-66.5 -31t-95 -28.5t-108.5 -11q-63 0 -113 21.5t-82 58.5t-53 89t-30 109t-9 123v192q0 36 -5.5 99.5t-17 85t-62 33t-76.5 11.5q-6 4 -7 36.5zM344 1194q53 54 148 175 q46 61 87 127q13 23 29 23q5 0 8.5 -2t5.5 -4t6 -7.5t7 -9.5q9 -12 22 -31.5t28 -41t33 -43.5q99 -130 154 -186q0 -17 -6 -32.5t-14 -19.5q-11 4 -57.5 33.5t-101.5 68.5t-85 64q-44 -38 -131 -96.5t-113 -69.5q-8 4 -14 19.5t-6 32.5z" />
<glyph unicode="&#xfc;" horiz-adv-x="1267" d="M21 847.5q-1 32.5 7 32.5q117 10 240.5 46t198.5 73q11 -3 23.5 -17.5t12.5 -20.5q-5 -13 -13 -58.5t-10 -69.5v-141v-201q0 -94 8 -158.5t27.5 -113t54 -71.5t85.5 -23q23 0 49 8.5t46.5 20.5t34 27t13.5 27v374q0 36 -5 99.5t-16.5 85t-62.5 33t-77 11.5 q-5 4 -6.5 36.5t6.5 32.5q117 10 240.5 46t198.5 73q11 -3 23.5 -17.5t12.5 -20.5q-5 -13 -13 -58.5t-9 -69.5q-1 -22 -1 -53t0.5 -59t0.5 -29v-450v-12v-12.5v-11t1 -11.5t2 -10t3 -10.5t5 -8.5t7 -9q20 -23 103 -23q4 -4 4 -29q0 -22 -13 -42q-45 -5 -111.5 -18 t-120.5 -26.5t-99 -24t-55 -10.5q-7 0 -12.5 15t-5.5 39v36q0 5 -2 9.5t-7 1.5q-18 -12 -43 -25.5t-66.5 -31t-95 -28.5t-108.5 -11q-63 0 -113 21.5t-82 58.5t-53 89t-30 109t-9 123v192q0 36 -5.5 99.5t-17 85t-62 33t-76.5 11.5q-6 4 -7 36.5zM221 1304q0 64 43 107 t107 43t108 -43.5t44 -106.5q0 -64 -44.5 -108.5t-107.5 -44.5q-64 0 -107 44.5t-43 108.5zM691 1304q0 63 44 106.5t108 43.5t108.5 -43.5t44.5 -106.5q0 -64 -44.5 -108.5t-108.5 -44.5t-108 44.5t-44 108.5z" />
<glyph unicode="&#xfd;" horiz-adv-x="1196" d="M-7 952.5q1 28.5 8 39.5q46 -5 142.5 -10t159.5 -5q152 0 283 15q8 -8 8 -40t-8 -43q-17 0 -46.5 -6.5t-58 -21.5t-28.5 -32q0 -22 5 -34l231 -441q103 227 177 392q24 49 24 83q0 16 -15 28t-35 18t-45.5 9.5t-39.5 4t-24 0.5q-8 9 -8.5 40.5t6.5 42.5q118 -15 235 -15 q116 0 233 15q7 -9 7.5 -39.5t-7.5 -43.5q-15 0 -36.5 -2.5t-51.5 -9.5t-56 -23t-37 -38q-229 -485 -370 -780q-14 -29 -37 -80t-36 -77t-33 -64t-42 -70.5t-49 -66.5q-80 -101 -153 -143.5t-131 -42.5q-68 0 -109.5 35.5t-41.5 82.5q0 70 52 106q73 0 121 6t95 24t83.5 53 t70.5 91q8 15 15 26.5t13 23.5t10 19.5t10 21t8.5 19.5t10.5 23.5t11 25.5l-372 755q-10 24 -31 42t-44 26.5t-40 12.5t-26 4q-9 15 -8 43.5zM588 1183q0 6 34 61.5t85 129.5t89 118q9 8 31 14t45 6q52 0 77.5 -22.5t25.5 -42.5q0 -30 -51 -84t-115 -101.5t-119 -83.5 t-64 -36q-11 0 -24.5 15t-13.5 26z" />
<glyph unicode="&#xfe;" horiz-adv-x="1198" d="M-17.5 -448q-0.5 30 7.5 43q132 10 143 40q12 30 15 75.5t3 134.5v1405q0 69 -16 107q-7 18 -55.5 29.5t-78.5 11.5q-4 0 -6.5 16t-0.5 33.5t7 21.5q51 5 102 12.5t92.5 15.5t79 16.5t65 16t48.5 14t32.5 10t12.5 3.5q10 -2 21 -15.5t13 -22.5q-25 -139 -25 -229v-407 q0 -3 1.5 -6l1.5 -3q2 -9 6 -5q25 27 56 51.5t62 43t62.5 29.5t57.5 11q98 0 182 -40t139.5 -107t86.5 -153t31 -180q0 -99 -33.5 -187.5t-89 -152t-126.5 -110t-148 -69.5t-152 -23q-18 0 -37 2t-34 5t-27.5 6t-21 5t-10.5 2q-5 0 -6 -6.5t-1 -29.5v-121q0 -61 1 -90t5 -64 t12 -56q12 -30 144 -40q8 -13 7.5 -43t-7.5 -40q-153 15 -307 15t-307 -15q-7 10 -7.5 40zM442 215q0 -64 44.5 -99t108.5 -35q23 0 50 12.5t55.5 41.5t51.5 69.5t38 103.5t15 138q0 90 -12 159.5t-39 123.5t-74.5 82.5t-114.5 28.5q-23 0 -44 -5.5t-35 -13.5t-24 -17 t-15 -16t-5 -11v-562z" />
<glyph unicode="&#xff;" horiz-adv-x="1196" d="M-7 952.5q1 28.5 8 39.5q46 -5 142.5 -10t159.5 -5q152 0 283 15q8 -8 8 -40t-8 -43q-17 0 -46.5 -6.5t-58 -21.5t-28.5 -32q0 -22 5 -34l231 -441q103 227 177 392q24 49 24 83q0 16 -15 28t-35 18t-45.5 9.5t-39.5 4t-24 0.5q-8 9 -8.5 40.5t6.5 42.5q118 -15 235 -15 q116 0 233 15q7 -9 7.5 -39.5t-7.5 -43.5q-15 0 -36.5 -2.5t-51.5 -9.5t-56 -23t-37 -38q-229 -485 -370 -780q-14 -29 -37 -80t-36 -77t-33 -64t-42 -70.5t-49 -66.5q-80 -101 -153 -143.5t-131 -42.5q-68 0 -109.5 35.5t-41.5 82.5q0 70 52 106q73 0 121 6t95 24t83.5 53 t70.5 91q8 15 15 26.5t13 23.5t10 19.5t10 21t8.5 19.5t10.5 23.5t11 25.5l-372 755q-10 24 -31 42t-44 26.5t-40 12.5t-26 4q-9 15 -8 43.5zM252 1304q0 64 43 107t107 43t108 -43.5t44 -106.5q0 -64 -44 -108.5t-108 -44.5t-107 44.5t-43 108.5zM722 1304q0 63 44.5 106.5 t108.5 43.5t108 -43.5t44 -106.5q0 -42 -20 -77t-55 -55.5t-77 -20.5q-64 0 -108.5 44.5t-44.5 108.5z" />
<glyph unicode="&#x152;" horiz-adv-x="2273" d="M90 734.5q0 102.5 28.5 201t79 180.5t121.5 151t154 117t178.5 74.5t192.5 26.5q127 0 291 -6.5t196 -6.5q54 0 370 7.5t358 7.5q7 -50 17.5 -106t26 -126t21.5 -99q-4 -3 -13.5 -6t-20 -4t-18.5 -1q-29 0 -36 18q-20 52 -39 88t-47.5 70t-67 51t-88.5 17h-186 q-31 0 -50.5 -1.5t-37.5 -7.5t-24 -18q-11 -27 -11 -137v-401q0 -6 14 -12t36 -9t46 -3h119q52 0 82 5.5t52.5 24.5t35.5 47t27 79q4 18 27 18q32 0 43 -11v-430q-9 -9 -41 -9q-27 0 -31 18q-12 50 -28 81t-26.5 40.5t-23.5 15.5q-38 15 -171 15q-161 0 -161 -31v-347 q0 -132 18 -177q6 -15 30.5 -25.5t54.5 -15t61 -4.5h147q135 0 209 74q65 65 121 213q3 13 31 13q18 0 40 -4t27 -9q-4 -14 -26 -74.5t-31.5 -88.5t-25 -76t-24.5 -83t-14 -63q-1 0 -303 -1.5t-483 -1.5h-307h-1h-1h-1h-1h-1h-1h1h1h1h1h1h1h1h1h1h1h1h1h1h1h1h1h1h1h1h1h1 h1h1h1h1h1h1h1h1h1h1h1h1h1h1h1h1h1h1h1h1h1h1h1h1h1h1h1h1h1h1h1h1h1h1h1h1h1h-1h-1h-1h-1h-1h-1h-1h-1h-1h-1h-1h-1h-1h-1h-1h-1h-1h-1h-1h-1h-1h-1h-1h-1h-1h-1h-1h-1h-1h-1h-1h-1h-1h-1h-1h-1h-1h-1h-1h-1h-1h-1h-1h-1h-1h-1h-1h-1h-1h-1h-1h-1h-1h-1h-1h-1h-1h-1h-1h-1 h-1h-1h-1h-1h-1h-1h-1h-1h-1h-1h-1h-1h-1h-1h-1h-1h-1h-1h-1h-1h-1h-1h-1h-1h-1h-1h-1h-1h-1h-1h-1h-1h-1h-1h-1h-1h-1h-1h-1h-1h-1h-1h-1h-1h-1h-1h-1h-1h-1h-1h-1h-1h-1h-1h-1h-1h-1h-1h-1h-1h-1h-1h-1h-1h-1h-1h-1h-1h-1h-1h-1h-1h-1h-1h-1h-1h-1h-1h-1h-1h-1h-1h-1h-1 h-1h-1h-1h-1h-1h-1h-1h-1h-1h-1h-1h-1h-1h-1h-1h-1h-1h-1h-1h-1h-1h-1h-1h-1h-1h-1h-1h-1h-1h-1h-1h-1h-1h-1h-1h-1h-1h-1h-1h-1h-1h-1h-1h-1h-1h-1h-1h-1h-1h-1h-1h-1h-1h-1h-1h-1h-1h-1h-1h-10q-97 0 -193 26t-179.5 73t-155 115t-122.5 149t-80 178.5t-29 200zM428 813 q0 -75 8 -148.5t25.5 -146t43.5 -136.5t64 -119.5t84.5 -95t107.5 -62t131 -22.5q65 0 134 18t98 54q25 30 36.5 69.5t11.5 109.5v743q0 72 -20 131.5t-54 95.5q-23 23 -58.5 42t-101 33t-147.5 14q-77 0 -139.5 -34.5t-103 -91.5t-68.5 -133t-40 -156t-12 -165z" />
<glyph unicode="&#x153;" horiz-adv-x="1760" d="M72 486q0 104 40.5 199t110 164.5t166.5 110.5t205 41q116 0 213.5 -37.5t169.5 -107.5q66 68 150.5 106.5t171.5 38.5q61 0 114 -12t92.5 -32t71 -48t52.5 -58.5t35.5 -63.5t20.5 -64t6 -60q0 -37 -17.5 -64.5t-42.5 -29.5q-202 -18 -538 -27q0 -89 23.5 -158.5 t57.5 -109t79 -64.5t82 -33.5t72 -8.5q148 0 251 112q11 -3 18.5 -16t7.5 -24q0 -33 -6 -43q-14 -21 -37 -46.5t-62 -56.5t-83.5 -56t-103.5 -41.5t-120 -16.5q-95 0 -181.5 33.5t-151.5 96.5q-46 -39 -99.5 -66.5t-115.5 -43.5t-126 -16q-114 0 -213 39t-167.5 106 t-107 159.5t-38.5 197.5zM390 531q0 -61 8 -123t26 -121.5t44.5 -105.5t65.5 -74.5t86 -28.5q40 0 70.5 16t49.5 46t32 64.5t19 80t8.5 83.5t2.5 84q0 79 -14 156.5t-41 146.5t-73.5 111.5t-104.5 42.5q-39 0 -69.5 -16t-49.5 -46t-31.5 -64.5t-18.5 -81.5t-8 -85t-2 -85z M1095 632q15 -2 132 5.5t157 12.5q29 2 29 35q0 41 -7 79t-22.5 71.5t-43 53.5t-63.5 20q-27 0 -51.5 -11t-42.5 -30t-33 -44t-25 -51t-17 -53t-10 -49t-3 -39z" />
<glyph unicode="&#x178;" horiz-adv-x="1397" d="M0.5 1442q0.5 30 7.5 41q153 -16 320 -16q163 0 316 16q7 -11 7.5 -41t-7.5 -42q-1 0 -12 -1t-17 -1.5t-19 -2t-21 -3.5l-20 -5t-19 -7.5t-14.5 -10t-11 -13t-3.5 -16.5t16 -36l269 -495q7 -8 95 147t187 339q11 22 11 51q0 41 -166 54q-8 12 -7.5 42t7.5 41 q22 -2 67.5 -6t63 -5.5t52 -3t71.5 -1.5q56 0 138.5 7t111.5 9q7 -11 7.5 -41t-7.5 -42l-13.5 -1t-20 -1.5t-22 -2.5t-25.5 -4.5t-24.5 -7t-24.5 -9.5t-19.5 -13t-15.5 -17q-45 -65 -205 -326.5t-203 -349.5q-13 -32 -13 -43v-300q0 -61 0.5 -90.5t4.5 -64.5t12 -56 q12 -30 144 -40q8 -12 7.5 -42t-7.5 -41q-153 16 -321 16q-162 0 -315 -16q-7 11 -7.5 41t7.5 42q131 10 143 40q12 31 15 76t3 135v311q0 23 -11 45q-25 55 -95.5 185.5t-128.5 233.5l-59 103q-37 70 -69 123q-15 26 -48.5 43.5t-58.5 23t-45 7.5q-8 12 -7.5 42zM326 1785 q0 64 43 107t107 43q31 0 59.5 -11.5t48.5 -31.5t32 -47.5t12 -59.5q0 -64 -44 -108t-108 -44t-107 44t-43 108zM830 1785q0 42 20 76.5t55 54t77 19.5t77 -19.5t55 -54t20 -76.5q0 -64 -44 -108t-108 -44t-108 44t-44 108z" />
<glyph unicode="&#x2000;" horiz-adv-x="974" />
<glyph unicode="&#x2001;" horiz-adv-x="1949" />
<glyph unicode="&#x2002;" horiz-adv-x="974" />
<glyph unicode="&#x2003;" horiz-adv-x="1949" />
<glyph unicode="&#x2004;" horiz-adv-x="649" />
<glyph unicode="&#x2005;" horiz-adv-x="487" />
<glyph unicode="&#x2006;" horiz-adv-x="324" />
<glyph unicode="&#x2007;" horiz-adv-x="324" />
<glyph unicode="&#x2008;" horiz-adv-x="243" />
<glyph unicode="&#x2009;" horiz-adv-x="389" />
<glyph unicode="&#x200a;" horiz-adv-x="108" />
<glyph unicode="&#x2010;" horiz-adv-x="840" d="M125 470q0 56 34 128q466 25 540 27q8 0 12 -4t4 -16q0 -28 -10 -66.5t-24 -68.5q-46 -3 -540 -24q-9 0 -12.5 5t-3.5 19z" />
<glyph unicode="&#x2011;" horiz-adv-x="840" d="M125 470q0 56 34 128q466 25 540 27q8 0 12 -4t4 -16q0 -28 -10 -66.5t-24 -68.5q-46 -3 -540 -24q-9 0 -12.5 5t-3.5 19z" />
<glyph unicode="&#x2012;" horiz-adv-x="840" d="M125 470q0 56 34 128q466 25 540 27q8 0 12 -4t4 -16q0 -28 -10 -66.5t-24 -68.5q-46 -3 -540 -24q-9 0 -12.5 5t-3.5 19z" />
<glyph unicode="&#x2013;" horiz-adv-x="1254" d="M130 455q0 9 2.5 40t10 68t18.5 37h952q14 0 14 -20q0 -49 -20 -130q-2 -4 -4 -7t-4 -4.5t-4 -2.5t-3 -1h-1h-948q-1 -1 -3.5 -0.5t-6 5.5t-3.5 15z" />
<glyph unicode="&#x2014;" horiz-adv-x="2114" d="M130 455q0 9 2.5 40t10 68t18.5 37h1815q13 0 13 -20q0 -49 -20 -130q-2 -6 -6 -10t-7 -5h-3h-1810q-1 -1 -3.5 -0.5t-6 5.5t-3.5 15z" />
<glyph unicode="&#x2018;" horiz-adv-x="418" d="M90 1243q0 59 23.5 115.5t57 95t70 69t62.5 44.5t33 14q14 0 27 -11t20 -29q-134 -81 -134 -166q0 -67 44 -121q5 -5 14.5 -15.5t14 -16.5t10.5 -14.5t8.5 -16.5t2.5 -17q0 -41 -42 -76.5t-95 -35.5q-9 0 -24 2.5t-32 8.5t-27 13q-33 49 -33 157z" />
<glyph unicode="&#x2019;" horiz-adv-x="434" d="M81 1102q134 81 134 166q0 67 -45 121q-4 5 -14 16t-14.5 16.5t-10 14t-8 16.5t-2.5 17q0 42 42 77t95 35q14 0 41.5 -7t40.5 -17q34 -49 34 -157q0 -59 -23.5 -115.5t-57.5 -95t-70 -68.5t-62 -44.5t-33 -14.5q-14 0 -27.5 11t-19.5 29z" />
<glyph unicode="&#x201a;" horiz-adv-x="452" d="M54 -199q134 80 134 165q0 65 -47 121q-3 5 -11.5 14t-12 13.5t-9 12t-8 13t-4.5 13t-2 15.5q0 41 42 76.5t95 35.5q15 0 42 -7t41 -18q33 -48 33 -156q0 -60 -23.5 -116t-57 -95t-70 -69t-62.5 -44.5t-33 -14.5q-14 0 -27.5 11.5t-19.5 29.5z" />
<glyph unicode="&#x201c;" horiz-adv-x="750" d="M90 1243q0 59 23.5 115.5t57 95t70 69t62.5 44.5t33 14q14 0 27 -11t20 -29q-134 -81 -134 -166q0 -67 44 -121q5 -5 14.5 -15.5t14 -16.5t10.5 -14.5t8.5 -16.5t2.5 -17q0 -41 -42 -76.5t-95 -35.5q-9 0 -24 2.5t-32 8.5t-27 13q-33 49 -33 157zM421 1243 q0 59 23.5 115.5t57.5 95t70 69t62 44.5t34 14t17.5 -4.5t17 -14t12.5 -21.5q-135 -81 -135 -166q0 -67 45 -121q5 -5 14.5 -15.5t14 -16.5t10 -14.5t8 -16.5t2.5 -17q0 -41 -42 -76.5t-94 -35.5q-9 0 -24 2.5t-32.5 8.5t-26.5 13q-34 49 -34 157z" />
<glyph unicode="&#x201d;" horiz-adv-x="766" d="M81 1102q134 81 134 166q0 67 -45 121q-4 5 -14 16t-14.5 16.5t-10 14t-8 16.5t-2.5 17q0 42 42 77t95 35q14 0 41.5 -7t40.5 -17q34 -49 34 -157q0 -59 -23.5 -115.5t-57.5 -95t-70 -68.5t-62 -44.5t-33 -14.5q-14 0 -27.5 11t-19.5 29zM412 1102q135 81 135 166 q0 67 -45 121q-5 5 -12.5 13.5t-11.5 13.5t-9.5 12t-8.5 13t-5.5 13.5t-2.5 14.5q0 27 19 53t51 42.5t67 16.5q15 0 42 -7t41 -17q34 -49 34 -157q0 -50 -17 -98t-43 -83.5t-56 -66t-58 -50t-47.5 -30t-25.5 -10.5q-14 0 -27 11t-20 29z" />
<glyph unicode="&#x201e;" horiz-adv-x="781" d="M52 -202q134 81 134 166q0 65 -47 121q-4 4 -12 13.5t-11.5 13.5t-9 12t-8 13.5t-4.5 13t-2 15.5q0 41 42 76.5t94 35.5q9 0 24 -3t32.5 -9t26.5 -13q34 -48 34 -157q0 -59 -23.5 -115.5t-57.5 -95t-70 -68.5t-62 -44.5t-33 -14.5q-14 0 -27.5 11t-19.5 29zM383 -202 q134 81 134 166q0 65 -47 121q-3 4 -11.5 13.5t-11.5 13.5l-9 12t-8.5 13.5t-4.5 13t-2 15.5q0 26 19 52t51 43t67 17q15 0 42 -7t41 -18q33 -48 33 -157q0 -59 -23.5 -115.5t-57 -95t-70 -68.5t-62 -44.5t-33.5 -14.5q-9 0 -18 5t-17 14t-12 21z" />
<glyph unicode="&#x2022;" horiz-adv-x="943" d="M159 589q0 85 42 158t114.5 115.5t157.5 42.5q63 0 121 -25.5t99.5 -68t66 -100.5t24.5 -122q0 -129 -91 -221t-220 -92q-64 0 -122 24.5t-100 66.5t-67 100.5t-25 121.5z" />
<glyph unicode="&#x2026;" horiz-adv-x="1769" d="M94 148q0 67 49.5 115t118.5 48q70 0 119 -51t49 -119q0 -67 -48.5 -116.5t-117.5 -49.5q-70 0 -120 50.5t-50 122.5zM717 148q0 44 22.5 81.5t61.5 59.5t84 22q69 0 118.5 -51t49.5 -119q0 -67 -48.5 -116.5t-117.5 -49.5q-71 0 -120.5 50.5t-49.5 122.5zM1340 148 q0 67 49.5 115t118.5 48t118.5 -51t49.5 -119q0 -67 -49 -116.5t-117 -49.5q-71 0 -120.5 50.5t-49.5 122.5z" />
<glyph unicode="&#x202f;" horiz-adv-x="389" />
<glyph unicode="&#x2039;" horiz-adv-x="705" d="M58 555.5q0 17.5 16 33.5q60 36 117.5 75t102.5 72.5t84.5 65t68.5 57t50 44.5t33.5 31.5l13.5 13.5q13 -3 34 -15.5t27 -27.5q-6 -9 -61.5 -76.5t-128.5 -152t-110 -120.5q37 -37 110 -121.5t128.5 -152t61.5 -76.5q-6 -15 -27 -27.5t-34 -14.5q-1 0 -13.5 12.5 t-33.5 31.5t-50 44.5t-68.5 57t-84.5 65t-102.5 72.5t-117.5 75q-16 16 -16 33.5z" />
<glyph unicode="&#x203a;" horiz-adv-x="705" d="M101 206q6 9 61 76.5t128.5 152t110.5 121.5q-37 36 -110.5 120.5t-128.5 152t-61 76.5q6 15 26.5 27.5t33.5 15.5q1 -1 14 -13.5t33.5 -31.5t50 -44.5t69 -57t84.5 -65t102.5 -72.5t117.5 -75q15 -16 15 -33.5t-15 -33.5q-60 -36 -117.5 -75t-102.5 -72.5t-84.5 -65 t-69 -57t-50 -44.5t-33.5 -31.5t-14 -12.5q-13 2 -33.5 14.5t-26.5 27.5z" />
<glyph unicode="&#x205f;" horiz-adv-x="487" />
<glyph unicode="&#x20ac;" horiz-adv-x="1603" d="M101 564q-11 11 9 53t35 42h836q15 -13 11 -33.5t-14.5 -38t-18.5 -23.5h-858zM101 802q-11 10 9 52t35 42h836q15 -13 11 -33.5t-14.5 -38t-18.5 -22.5h-858zM188 694q0 149 60 286t161 237.5t241.5 160.5t294.5 60q264 0 459 -40q0 -1 37 -156t37 -171q0 -11 -19 -21.5 t-39 -10.5t-29 9q-6 22 -14.5 44t-25.5 52.5t-39 57t-56 54t-74 47t-96.5 31.5t-120.5 12q-90 0 -165 -32t-126 -87t-85.5 -130.5t-50.5 -160t-16 -177.5q0 -102 18 -199.5t57 -185t95 -153t137.5 -104.5t178.5 -39q167 0 273 94q41 38 79 102.5t54.5 106t21.5 58.5 q48 0 76 -25q0 -31 -34 -175.5t-56 -153.5q-75 -26 -109.5 -37.5t-102 -30t-132.5 -26t-137 -7.5q-153 0 -292.5 56.5t-240 151.5t-160.5 226.5t-60 275.5z" />
<glyph unicode="&#x25fc;" horiz-adv-x="990" d="M0 0v990h990v-990h-990z" />
</font>
</defs>
</svg>
